蓝光高清网

标题: 出租车司机 4k Taxi.Driver.1976.2160p.UHD.BluRay.x265.10bit.HDR.DTS-HD.MA.5.1-4k电影下载—33.45 GB [打印本页]

作者: 1080pro    时间: 2021-9-18 14:52
标题: 出租车司机 4k Taxi.Driver.1976.2160p.UHD.BluRay.x265.10bit.HDR.DTS-HD.MA.5.1-4k电影下载—33.45 GB
简       介
9 ?( C( P0 h0 ~$ {  l& Z; d8 ^0 K
9 Q& ^& x& R3 ~& f1 [4 f
  特拉维斯(罗伯特·德尼罗 Robert De Niro 饰)从越战中退伍回来后一直在纽约以开出租车为生。战争后的他多少有些失落,加上开出租车目睹了纽约夜幕下的种种罪恶,令他变得愤世嫉俗、痛恨社会。在追求总统候选人帕兰坦竞选办公室的秘书贝西失败后,特拉维斯决定去刺杀帕兰坦 以证明自己。
2 ^' U4 A8 N  d. A. B  在准备刺杀行动的过程中,特拉维斯遇上了被逼卖淫的雏妓艾瑞斯。在企图救艾瑞斯出火坑未果后,特拉维斯手持武器闯进淫窝,将里面的一干人等通通干掉了!本以为即将收到法律的惩罚,然而媒体却将特拉维斯描述成了一个拯救少女的英雄……

9 Y9 L% B) f, l& q3 G  P! o
8 q6 e4 |% s9 J/ E1 j) O& q- a! J5 I

. ?5 |+ |+ x1 S9 W' X' `" o! A6 `影片参数
0 ~- l7 j" v8 R6 u- S; c
士司机(港) / 计程车司机(台) / 出租汽车司机/出租车司机4k Taxi.Driver.1976.2160p.UHD.BluRay.x265.10bit.HDR.DTS-HD.MA.5.1-4k电影信息" U$ t6 F* H; D4 {4 @0 M
Video1 u9 `5 {. g# E1 h3 v# W7 G+ z7 L$ z
ID : 16 j, q/ S. C) `" \" Z5 `) o  I
Format : HEVC4 v% |" P( M9 I$ C1 }
Format/Info : High Efficiency Video Coding
% H8 N$ Y- W% H, Q& cFormat profile : Main 10@L5.1@High6 J3 g' a. t$ N5 V% X, V: h! E" M
HDR format : SMPTE ST 2086, HDR10 compatible
! g  x! f/ a2 ?2 ?$ ]  P2 }* D. ^) QCodec ID : V_MPEGH/ISO/HEVC
5 v& U9 D- f) m- K5 R/ M- ?3 GDuration : 1 h 53 min
8 K3 R! V; R0 g7 i! ^2 qBit rate : 39.0 Mb/s
9 m7 P# v8 F% A" fWidth : 3 840 pixels/ v+ X6 Z* X- g$ o2 F' ]
Height : 2 076 pixels2 [3 V" ~% ^! `7 X
Display aspect ratio : 1.85:1- ?) R& P0 ^# z" U1 `# s5 }+ x5 z6 q
Frame rate mode : Constant
9 l. \; e' }9 O$ d( K9 zFrame rate : 23.976 (24000/1001) FPS
  W  G5 Y. r& G7 g7 O3 G' OColor space : YUV
6 `; W/ E+ ^2 v8 Q" ]$ lChroma subsampling : 4:2:0 (Type 2)1 t2 {8 o8 u, B( x
Bit depth : 10 bits( z; F4 u9 `& k% Z) {
Bits/(Pixel*Frame) : 0.204
" m7 G, a% D& _/ CStream size : 31.0 GiB (93%)
2 R) _# N$ {0 I7 OWriting library : x265 3.5+13-4c6880de4:[Windows][MSVC 1900][64 bit] 10bit
% u1 W% V; {9 A1 A' q% _& nEncoding settings : cpuid=1111039 / frame-threads=6 / numa-pools=32 / wpp / no-pmode / no-pme / no-psnr / no-ssim / log-level=2 / input-csp=1 / input-res=3840x2076 / interlace=0 / total-frames=163704 / level-idc=51 / high-tier=1 / uhd-bd=0 / ref=4 / no-allow-non-conformance / repeat-headers / annexb / aud / no-eob / no-eos / hrd / info / hash=0 / no-temporal-layers / no-open-gop / min-keyint=23 / keyint=250 / gop-lookahead=0 / bframes=4 / b-adapt=2 / b-pyramid / bframe-bias=0 / rc-lookahead=25 / lookahead-slices=4 / scenecut=40 / no-hist-scenecut / radl=0 / no-splice / no-intra-refresh / ctu=64 / min-cu-size=8 / rect / no-amp / max-tu-size=32 / tu-inter-depth=1 / tu-intra-depth=1 / limit-tu=0 / rdoq-level=2 / dynamic-rd=0.00 / no-ssim-rd / signhide / no-tskip / nr-intra=0 / nr-inter=0 / no-constrained-intra / no-strong-intra-smoothing / max-merge=3 / limit-refs=3 / limit-modes / me=3 / subme=3 / merange=57 / temporal-mvp / no-frame-dup / no-hme / weightp / no-weightb / no-analyze-src-pics / deblock=-3:-3 / no-sao / no-sao-non-deblock / rd=4 / selective-sao=0 / no-early-skip / rskip / no-fast-intra / no-tskip-fast / no-cu-lossless / no-b-intra / no-splitrd-skip / rdpenalty=0 / psy-rd=2.00 / psy-rdoq=1.00 / no-rd-refine / no-lossless / cbqpoffs=0 / crqpoffs=0 / rc=crf / crf=19.7 / qcomp=0.60 / qpstep=4 / stats-write=0 / stats-read=0 / vbv-maxrate=160000 / vbv-bufsize=160000 / vbv-init=0.9 / min-vbv-fullness=50.0 / max-vbv-fullness=80.0 / crf-max=0.0 / crf-min=0.0 / ipratio=1.40 / pbratio=1.30 / aq-mode=2 / aq-strength=0.70 / cutree / zone-count=0 / no-strict-cbr / qg-size=32 / no-rc-grain / qpmax=69 / qpmin=0 / no-const-vbv / sar=1 / overscan=0 / videoformat=5 / range=0 / colorprim=9 / transfer=16 / colormatrix=9 / chromaloc=1 / chromaloc-top=2 / chromaloc-bottom=2 / display-window=0 / master-display=G(13250,34500)B(7500,3000)R(34000,16000)WP(15635,16450)L(40000000,50) / cll=3242,146 / min-luma=0 / max-luma=1023 / log2-max-poc-lsb=8 / vui-timing-info / vui-hrd-info / slices=1 / no-opt-qp-pps / no-opt-ref-list-length-pps / no-multi-pass-opt-rps / scenecut-bias=0.05 / hist-threshold=0.03 / no-opt-cu-delta-qp / no-aq-motion / hdr10 / hdr10-opt / no-dhdr10-opt / no-idr-recovery-sei / analysis-reuse-level=0 / analysis-save-reuse-level=0 / analysis-load-reuse-level=0 / scale-factor=0 / refine-intra=0 / refine-inter=0 / refine-mv=1 / refine-ctu-distortion=0 / no-limit-sao / ctu-info=0 / no-lowpass-dct / refine-analysis-type=0 / copy-pic=1 / max-ausize-factor=1.0 / no-dynamic-refine / no-single-sei / no-hevc-aq / no-svt / no-field / qp-adaptation-range=1.00 / scenecut-aware-qp=0conformance-window-offsets / right=0 / bottom=0 / decoder-max-rate=0 / no-vbv-live-multi-pass$ N. s& f3 e& k, T2 s
Default : Yes: O, W- J; |8 J; D
Forced : No
& n: Q7 L" V/ S/ C$ gColor range : Limited, ]' p. {$ N8 c& B- @
Color primaries : BT.20208 ]( ^( Q7 x! |; Z* \- q# g! g. t
Transfer characteristics : PQ' ]/ r+ d  g6 v4 M" T4 e/ ?1 J7 d
Matrix coefficients : BT.2020 non-constant
5 @$ Z0 c+ @2 S6 Z) |' e5 @- `Mastering display color primaries : Display P3
: X. B& U3 m7 a* ?0 FMastering display luminance : min: 0.0050 cd/m2, max: 4000 cd/m27 h+ C; S$ M3 I/ E/ C
Maximum Content Light Level : 3242 cd/m2+ h+ U+ c; ~% I" r1 L! ?1 M/ S
Maximum Frame-Average Light Level : 146 cd/m2
- g% M3 H. _  o4 e6 a; ?0 s" _. T# Z& H) h4 {
: g# m( X6 E) o. w5 }' H
Audio #1# U4 v4 i0 X1 u, _# V1 X- h
ID : 2
( f; g. @, ~& j" NFormat : DTS XLL
' B0 [1 g/ `  {8 q( X! j+ yFormat/Info : Digital Theater Systems3 F% W' \1 \' b( N( @/ Q
Commercial name : DTS-HD Master Audio; L$ a/ e9 W6 P" B- s9 n3 r; X
Codec ID : A_DTS
+ Y8 o9 H) z6 R8 ~( x: xDuration : 1 h 53 min1 D# J- P! B1 F# S5 H9 L7 r$ y: P
Bit rate mode : Variable) ]9 X$ q, _  N$ G
Bit rate : 2 143 kb/s
( M" F3 _7 m3 [1 vChannel(s) : 6 channels) h3 f# d% J+ V  N/ w) d
Channel layout : C L R Ls Rs LFE
6 _  Q/ E1 M' c+ v0 TSampling rate : 48.0 kHz: K1 E8 T. F' e1 y1 [" O$ j: y
Frame rate : 93.750 FPS (512 SPF)
5 R3 p8 `7 f9 K7 dBit depth : 16 bits
4 a, u% q! |+ ]! b2 c9 dCompression mode : Lossless
- ^% f: T; t4 C, ?Stream size : 1.70 GiB (5%)" n9 L; }, U; X! ~. z
Title : DTS-HD MA 5.18 q6 u4 d( R6 S. O% `
Language : English0 j7 S* w1 c  {7 Q: J3 w
Default : Yes  Z4 ?* P5 e4 F4 ~
Forced : No
7 X0 @2 p8 k; u! R, k. S
( K( j: w8 s7 J2 u: W: X

$ S- D) c) N; I3 h3 e1 {! zAudio #2+ ~% ~$ V3 E2 D/ x; G8 w
ID : 3
: P0 ?% S6 a: f; T( h% DFormat : FLAC  |4 T" w8 P( Q: V- ~& _
Format/Info : Free Lossless Audio Codec
5 `8 ?" T  V% o9 Y7 XCodec ID : A_FLAC0 B- _) S$ |- I8 i* ^0 K- \- {
Duration : 1 h 53 min
1 r/ S6 |: z6 Q) |& u- _& v' \3 G: `Bit rate mode : Variable
5 R* x0 h. R6 nBit rate : 306 kb/s/ C6 f2 m! Z* Y/ I6 X
Channel(s) : 2 channels) `0 U* \- x- h$ A' e
Channel layout : L R  g- k  x% l6 p, B# @& n- F
Sampling rate : 48.0 kHz
4 }" l# }( w0 ?' h# sFrame rate : 11.719 FPS (4096 SPF)- q7 a# F' V5 _* h2 F" H) p) K7 D) P
Bit depth : 16 bits
0 F& L4 }' M& Q" H8 JCompression mode : Lossless
0 R0 |4 S" U5 n9 v2 hStream size : 249 MiB (1%)3 W; K; n: R; w% u, t' A
Title : (Original Audio)
- q, n+ a8 c. m1 oWriting library : libFLAC 1.2.1 (UTC 2007-09-17), b4 N  ^8 ^9 i3 k9 R. n
Language : English
- B4 g% a+ n; fDefault : Yes8 a8 C: F" Z, M. ~
Forced : No
- j2 {! r8 M% X0 y# J# h& m+ \) Q8 i1 [9 e$ J9 `5 F
: i$ Y; J! D2 q: |  O
Text #1
2 @- p$ Z) B8 z# Y" q/ M+ WID : 48 M. A: m, d' O, t6 ~% f
Format : PGS+ J. p( e% X' h
Muxing mode : zlib5 n4 o- |0 _- [7 x+ g4 W( Y
Codec ID : S_HDMV/PGS
, d, u8 \. x; B( K/ i3 R9 b7 zCodec ID/Info : Picture based subtitle format used on BDs/HD-DVDs
4 ^( ^+ E& z  o4 rDuration : 1 h 48 min/ ]/ j! e: h8 G+ W( C  L
Bit rate : 31.7 kb/s) W( L" H6 }$ I; H2 m: s
Count of elements : 2451
+ ?% }1 q2 w  k3 w: xStream size : 24.5 MiB (0%)( P* t  ~$ _* x' H- _( s, v- u8 a
Title : Full+ z+ h# r) \  Y9 q# B# g
Language : English
/ r8 q- S3 P+ p: K7 yDefault : No
2 Y: m% `# s8 v  q! CForced : No9 K9 d+ L' T2 u; U" S7 ]7 ^9 q
! }2 r7 \. @1 s: B  n5 A% A' G* |

' o* F3 M8 b$ W9 {  J! r3 ^* oText #2- O  v6 ^( V6 R; [& R
ID : 50 {, V9 q2 H0 a3 f  y  J
Format : PGS0 d% W; b  t) e% q, }
Muxing mode : zlib" Y4 C  J7 z  {+ ^8 y# Y* A: ^/ G  @
Codec ID : S_HDMV/PGS
' W' N: j, z$ b: v" |; ]9 GCodec ID/Info : Picture based subtitle format used on BDs/HD-DVDs; b- y& a0 f; Q5 e
Duration : 1 h 48 min5 D$ C/ M- Q- }. M, D3 b% Q
Bit rate : 31.7 kb/s8 ^# Q& f. i* K1 A3 M6 l5 P! I$ b
Count of elements : 2451+ c! x! j6 |1 ?
Stream size : 24.5 MiB (0%)
7 m% l) I6 N! f+ p8 Z7 M- L1 _7 bTitle : Full" F6 G' J7 }- u( t
Language : English& x4 ^) M9 x% ?" n+ X
Default : No
3 W) u% K. d$ T: s0 _" zForced : No
& d/ }9 l5 B. U5 U4 {2 q$ ~* l" K# x8 ?7 Y% ~$ H: @* C  U! A
$ h* U0 W, E2 Q7 p
Text #3' z2 ?, p- A. P1 ^" W; M# p
ID : 6/ k& g" g$ h3 E* ^8 s$ P! L
Format : PGS" S9 r5 G+ Z( Y6 M3 z6 @3 C) o
Muxing mode : zlib  W# a4 c' Q2 s: ]+ G6 y1 b& M+ E
Codec ID : S_HDMV/PGS* U4 o; w5 Q' ]
Codec ID/Info : Picture based subtitle format used on BDs/HD-DVDs; j, D3 N& N' m$ L) k6 L
Duration : 1 h 50 min
6 F1 ?2 o1 V/ T+ E& z) \2 `Bit rate : 34.3 kb/s
! K: p' X: j. q. J( c$ ?Count of elements : 26954 [% Q& y$ u) N( I# M  x
Stream size : 27.0 MiB (0%)8 R) g8 T( ]6 G7 O2 L5 w
Title : SDH/ i# a0 Z1 B- p7 j
Language : English
8 H4 m: E4 {( Q; W  wDefault : No
1 Z0 l1 [: X5 h+ g' ], oForced : No( ]$ d, @3 i, O( z/ e2 m0 a

3 Q) K# O) R+ r' @3 O0 O: k& H6 N) f6 r
) q) R, S( ^& {/ \/ e
Text #4
4 Y! ^2 g1 v' {* A' j+ ^1 lID : 7- t* [, P7 E  l! [: G5 _( }- _# g
Format : PGS4 U7 e: L2 N- b5 q6 E
Muxing mode : zlib
- \* g- p: s9 o: U. {: {5 V2 `1 Q  l" ~Codec ID : S_HDMV/PGS) R6 E7 P$ i7 |
Codec ID/Info : Picture based subtitle format used on BDs/HD-DVDs: A% [9 ^% A) d2 D
Duration : 1 h 50 min
. j6 N/ l$ r7 x( ~, tBit rate : 34.3 kb/s
; Y; W- w! w: d* E2 ZCount of elements : 2695
  w5 V; F# l0 B8 [- S% t7 r  s* lStream size : 27.0 MiB (0%). U1 F. j$ @* J2 C% G
Title : SDH
# D- W  G/ y0 }Language : English
6 U2 r6 }/ a7 W. ODefault : No3 o6 `) ~" o0 x) d! P! o( M
Forced : No
7 o( {" @- j. ]& ^) P( i
& {& ]' B8 Z4 t0 a7 }" C5 y1 [% z
3 P# F) r1 m1 s/ F
Text #5
9 s" a7 u- f2 Y' o: ^ID : 8
( B, E# K0 b2 T8 X- @Format : PGS
: K' e8 e0 [: ^" t8 F) OMuxing mode : zlib
+ n  D1 Q" }8 H; O$ P8 XCodec ID : S_HDMV/PGS1 y1 [$ M  R# s
Codec ID/Info : Picture based subtitle format used on BDs/HD-DVDs
4 I3 N9 S6 ~2 EDuration : 1 h 51 min( r+ a6 D" T  N: w; ]& T* G: Z! |7 {
Bit rate : 27.5 kb/s& ]  Y) O+ p: t
Count of elements : 2424
4 _' U  M! M& D+ ?( W. n4 iStream size : 21.9 MiB (0%)% l) m3 j4 d: I
Title : French
! m# A8 Z# O  S7 H; u2 _Language : French" w' q( h* \! J9 s: j" W
Default : No1 {$ ]& V. B0 H' J& N
Forced : No9 g( s; \- x" g* w9 G3 T
7 j6 J7 ~& t+ g  K; Z( j
7 ?4 Z$ q) a$ j% L4 D0 c/ R8 l
Text #62 v. a3 P9 Z! R* `1 J6 H$ ^( Z7 R0 d
ID : 94 J' l6 u2 v/ Q( A
Format : PGS
  A' A; p9 [/ A* b4 ?6 L( C  UMuxing mode : zlib5 C" ?* n- g. S6 h* _) ?5 V
Codec ID : S_HDMV/PGS
& L4 v) ~( x- U. f8 r' qCodec ID/Info : Picture based subtitle format used on BDs/HD-DVDs
' G% J* O- _: |' yDuration : 1 h 51 min
0 |& Y, x( w. x8 y- a2 RBit rate : 27.8 kb/s
7 d# X& e0 N$ r0 Y9 dCount of elements : 2469
1 x2 T$ i3 H- y1 }' o. ]6 _Stream size : 22.2 MiB (0%)1 x, P% u% Y1 E. `; W
Title : Spanish8 v$ |  b& `/ L- N' n! Y
Language : Spanish
8 Y0 C9 s6 d$ o8 `3 F$ R1 yDefault : No! d; q* L1 m. X# v
Forced : No  v( z7 M' x. y/ Q, r

# s3 X, M1 m. ^- L5 k/ }; R

+ N- M  b5 n8 y5 D( r$ QText #71 J2 P( X+ _2 y! n+ }7 T6 z5 [2 @. W
ID : 101 b# f! K0 s3 y6 X2 P) V) Q4 D7 o
Format : PGS
8 u2 ~  s" b5 n( p4 nMuxing mode : zlib
5 }) g( P# j$ O$ M# B. HCodec ID : S_HDMV/PGS
/ \' y: t7 ?, s6 dCodec ID/Info : Picture based subtitle format used on BDs/HD-DVDs3 Z7 \% X0 C+ W1 c3 I9 M1 o& o
Duration : 1 h 51 min+ Z2 b9 @  k3 w/ R7 U
Bit rate : 27.1 kb/s8 ~. f& F* \! K( n$ A8 K& u. t
Count of elements : 2516# T( ]: p8 `9 C1 D9 f$ ]
Stream size : 21.6 MiB (0%)$ ]6 m; m- y, g0 |. \+ R
Title : Spanish
! a, ^& K* @5 j: G0 z. BLanguage : Spanish
. p0 O3 d+ z& q  V3 lDefault : No& p2 v7 r6 N1 B
Forced : No
8 F; r# X1 ]4 H- d4 a: Q7 u; x/ W* Q7 q, U
' I% D! Y1 D4 C- d( @
Text #8
. F& n4 m: @8 [) Q* A' o0 i3 ], UID : 11
' `. r/ |) r2 yFormat : PGS) p0 ]$ y; x( s2 W6 a1 Z5 n
Muxing mode : zlib0 [# g  O4 N: P6 t9 t
Codec ID : S_HDMV/PGS
1 e* G3 c4 g& {5 tCodec ID/Info : Picture based subtitle format used on BDs/HD-DVDs2 M6 y2 O! W' N# B/ b
Duration : 1 h 48 min- T# u1 Q" {; S$ J+ n5 K
Bit rate : 29.7 kb/s
: `( A, k6 L% m6 ]! h8 KCount of elements : 2468! S6 C' ~9 [& S: D: Y0 C5 x6 |
Stream size : 22.9 MiB (0%)- Z% |/ J, r0 f9 n0 r9 S
Title : Italian  C& ^2 o8 q) B/ o+ a
Language : Italian8 V1 p  h8 v9 S0 R
Default : No" H8 Y' F1 ]% Z/ H: S8 Y( m# c8 s3 T
Forced : No
  C* ^! w' f2 i# E, [" k/ V
# y# N' q- t( p% k

8 K9 M2 x) U, QText #9: j& \6 G& p: _4 K  M; C: d9 ?3 t# G- o
ID : 12/ w0 M5 {9 K" K9 t
Format : PGS0 f$ K8 V& L" N) V$ L2 j
Muxing mode : zlib
; H5 E* t5 B0 |( k+ W! YCodec ID : S_HDMV/PGS
0 Y4 P* ~) {1 m8 \6 ZCodec ID/Info : Picture based subtitle format used on BDs/HD-DVDs6 U6 V, ?0 Q/ e+ Z: \. n5 W
Duration : 1 h 48 min8 A$ x: r3 K. P) M
Bit rate : 32.3 kb/s) g$ @. c0 I/ n2 o
Count of elements : 2485
. H; y' V# M  s, M) O  QStream size : 25.0 MiB (0%)# h# ~4 e. G6 {' Y- G1 D
Title : German
( k' ]! U5 ]+ JLanguage : German% p$ @# G$ T- O- K8 _
Default : No# _# L7 o  [9 y9 w) C7 o
Forced : No
5 L# [: ~& n0 S, U& H4 H
6 y* m, W4 w6 D& u0 E! j& t

$ |5 h: s+ }7 p# iText #10
( O$ E6 \. {/ EID : 13( D' P( @$ h2 q$ i! G* o; |
Format : PGS
; ?* s3 s6 Y3 s: bMuxing mode : zlib  G8 u6 ~# n! {5 G2 k! N. d0 E
Codec ID : S_HDMV/PGS
2 _! S/ {4 M: Z  ?0 J3 T# K5 ^Codec ID/Info : Picture based subtitle format used on BDs/HD-DVDs
( q' f( O1 K6 u) @2 dDuration : 1 h 47 min% F' Z' c0 P$ x: }( U5 r" D3 W
Bit rate : 28.0 kb/s
+ C2 f4 |# x- r6 U' P7 T- aCount of elements : 2355% x3 w, F2 N8 y& I7 G
Stream size : 21.7 MiB (0%), N) u9 f1 B. Q; j
Title : Dutch
- K5 ~9 h/ F# c1 R8 e. ~Language : Dutch$ i6 K8 b  E& v, g0 ^2 f) X
Default : No
" k. L2 q: }0 p  ~* |Forced : No
- q9 c3 Y7 @% c9 P; i9 Y9 r' g9 o* T* Z0 Y% B0 z
% a6 V% x/ ~6 S
Text #11: p' Z$ Y9 x0 b+ [7 V7 M+ `
ID : 14
0 n  }6 R; S4 z% l$ zFormat : PGS0 ~, w/ T6 m5 i
Muxing mode : zlib+ x0 e# t  \& S* v: K% W
Codec ID : S_HDMV/PGS
) O7 H/ Q  D; }Codec ID/Info : Picture based subtitle format used on BDs/HD-DVDs
; o3 w3 W8 F2 ?6 X2 jDuration : 1 h 51 min
2 E- B: y& i7 o' U5 @Bit rate : 23.9 kb/s* D! N! l4 l# {/ c% Q: o
Count of elements : 18702 U* L0 d& v) `5 h/ {4 P
Stream size : 19.0 MiB (0%), f; N( T# Y7 Y
Title : Swedish: t, K/ }3 S  H3 M/ Y+ |
Language : Swedish
9 V+ j& H/ `$ \( X& MDefault : No* I5 t, a% q( D  x
Forced : No
. w% @! c5 r- V! ]5 t- d4 B1 ^! K; J8 O9 b* h& u5 }4 j+ W- i) d2 j

$ T$ v, v* `/ p% ]0 L  fText #12
  x# @8 c; x7 m' cID : 15
' J- R7 I. Q9 ~  ^4 q$ x- u+ wFormat : PGS
* n. ~8 j! r8 e8 Z2 G' _Muxing mode : zlib& Z: _, A2 [$ H
Codec ID : S_HDMV/PGS1 M' ?! S+ n: J' ^3 B# t4 v
Codec ID/Info : Picture based subtitle format used on BDs/HD-DVDs( q0 W# Q/ ]2 K5 u5 M7 J, [, x" C
Duration : 1 h 48 min
1 A' \! r1 X  uBit rate : 23.9 kb/s
) d& a' H+ m* {# L8 V& w7 [9 hCount of elements : 1832, F3 v+ ~8 Y. z/ b
Stream size : 18.4 MiB (0%)
' }8 o4 {: E6 b% }Title : Norwegian
( L, ?4 e- d7 Y+ v: N# M7 `* G) }Language : Norwegian, y: I, a# d( f5 T  I6 h
Default : No
3 o! F7 t' H6 q  q7 tForced : No* A, l6 \0 W) B; l; D7 P& Z. q

+ o$ u' V$ s- g- w
  A  ^, ?7 j5 j2 k+ U8 z
Text #13
; Q$ ?% y6 S2 x$ M) UID : 16
* M; n# J0 M! R# {0 U2 p# A8 |1 ZFormat : PGS8 p, D) _) E; l4 j+ i4 r: u2 ~
Muxing mode : zlib) \: S& H/ ~  J  j7 ^! e4 w
Codec ID : S_HDMV/PGS7 S+ j4 E- Y) I7 j- A, ~
Codec ID/Info : Picture based subtitle format used on BDs/HD-DVDs6 `. j5 K  |. Y, _* ~
Duration : 1 h 48 min
, J# E' q. A/ Z( P; mBit rate : 25.7 kb/s. r9 n0 x# y# F$ S+ s& f0 C
Count of elements : 1763" ~# j& u3 q9 f9 r7 s1 y6 q' h
Stream size : 19.9 MiB (0%): b4 f; g, U* S; N4 d; e
Title : Finnish0 b2 R' @3 ]# `2 V$ C
Language : Finnish- e5 h" Z, @; ?
Default : No
7 `# s1 S' [* [% p& c7 ]Forced : No  E# s; z6 ?  X9 S' u

6 f4 t3 Y; k  V  ^2 J
2 j" X' j6 h& U. W
Text #14' c3 U, C2 w  l7 w! d. Z
ID : 175 J% ~/ X" [' \5 c3 j7 y
Format : PGS
3 y! f9 e1 d* a4 zMuxing mode : zlib
, W2 L5 v+ V" o2 l" SCodec ID : S_HDMV/PGS4 S+ A! B9 ^" S) z2 {9 C* r# ?
Codec ID/Info : Picture based subtitle format used on BDs/HD-DVDs( V9 o% O/ U& i
Duration : 1 h 48 min* u& \6 X9 A5 ?! j7 m) }6 |
Bit rate : 29.6 kb/s
6 D, i% o' J1 Q1 BCount of elements : 2435
1 s; W. L9 `# D, r& @) \; J; EStream size : 22.9 MiB (0%)' O: D: o9 Y/ D' @) G9 b% v" T
Title : Icelandic
; C8 T# w' R' E1 d2 C+ G# nLanguage : Icelandic1 i4 G, ~$ Z0 I( u
Default : No) B- b* `8 c: {$ A; S- Q
Forced : No
8 m4 Y$ j/ v: R0 ]9 p' D* ?# b' G

# d1 B4 ]. K: F( i1 e7 y0 GText #15
/ ~: P8 |6 o6 K, `1 p' T& x* FID : 18( U- b7 {' M3 \" t) U8 `
Format : PGS8 \' N3 g+ }2 i- b1 Z' A  ^) H3 V
Muxing mode : zlib
9 Q8 ^/ }4 e9 @& e- |9 g' bCodec ID : S_HDMV/PGS  a' J7 u. [  G4 t* r# L
Codec ID/Info : Picture based subtitle format used on BDs/HD-DVDs
( |0 @4 p: o8 s/ H4 g( D2 mDuration : 1 h 48 min' f  w2 J& o, D
Bit rate : 25.9 kb/s
4 U- O$ \, \1 m/ |* nCount of elements : 2467
% [# k/ H- M9 M: u7 Y9 D5 eStream size : 20.0 MiB (0%)
' ~+ m# Z8 \$ A) c1 LTitle : Czech
* p& m3 P/ `0 E3 [Language : Czech
' ^  w% @# V2 l% K3 {% `# ZDefault : No
: m% n5 ]+ G8 s- u# sForced : No7 t3 D( `& ~! N4 F- O7 w
' |: ]4 h/ S! u1 o

/ s: z* W6 J6 u( _1 v7 ~Text #167 N& ]8 z: H3 K+ u% o7 Q$ t( \
ID : 199 M- K5 x; b7 w4 b, Y1 d, L
Format : PGS
6 p6 E! ?# d7 J& _, xMuxing mode : zlib, W  X, a' @/ o
Codec ID : S_HDMV/PGS
* E+ B6 B$ a% ~. qCodec ID/Info : Picture based subtitle format used on BDs/HD-DVDs
: Z7 D4 p' a# K  d6 c# w, UDuration : 1 h 48 min
2 _. y0 A9 k5 XBit rate : 24.9 kb/s
. ]$ w$ E7 |# f: {6 U) c; [3 TCount of elements : 24131 O1 J/ }3 ]$ w3 F9 Y
Stream size : 19.2 MiB (0%)
- ^$ e( J9 w9 W) XTitle : Polish; W. X0 ~: g& E. f
Language : Polish: Q8 {) M3 ~" C3 ?1 C: X1 W
Default : No
" P" N* p0 u' W7 s3 Q: c7 z6 hForced : No
4 O$ m; C# p9 |% w
+ N7 \4 Y  K+ j0 l- _- k

) L9 }7 b, q$ ]& B3 z  y$ c/ gText #17
: P& D4 g" o9 D% ^ID : 20. r* _; D* K4 F  E; H, G
Format : PGS1 }1 R% _9 O5 B1 ^* V
Muxing mode : zlib; f0 x0 x9 Q  X& s+ D4 k
Codec ID : S_HDMV/PGS
  W& ~& X# v. W7 \" x$ P. i) j1 ?Codec ID/Info : Picture based subtitle format used on BDs/HD-DVDs) S2 k5 ~" y. f; p
Duration : 1 h 48 min
% c1 J# C- q3 ?) Z* L+ f! M& GBit rate : 26.3 kb/s
, V& k- ]4 D  Y( ]. k  qCount of elements : 2447
6 S$ m( D9 V; _Stream size : 20.3 MiB (0%)! o& R4 ?0 P/ Y
Title : Hungarian
$ D: Z" L0 Y! W  m0 J7 O$ ?Language : Hungarian5 \, p' @1 M- z  ~
Default : No: z9 C5 E- ~/ i+ K' ~- Q
Forced : No
4 j$ Y7 z* H4 }- z9 E) S' |( [2 ]. x! N) c( Z% Z

& c; B' x, N) w, |  a- g3 tText #18  R+ X3 |4 z1 K. E
ID : 21( s; H4 }# X+ `- g% O2 ~
Format : PGS
  N4 I# m, i' g/ K1 D' oMuxing mode : zlib: X" X, k- ~7 l1 ?
Codec ID : S_HDMV/PGS8 r  ~- }# J- q  S+ l/ j5 o
Codec ID/Info : Picture based subtitle format used on BDs/HD-DVDs% B8 X. c2 Y9 D9 T' L& f, i
Duration : 1 h 51 min/ g0 S( y0 Z4 t. U4 l4 _3 L
Bit rate : 26.9 kb/s) Z2 E1 B" M) z  d! W* |
Count of elements : 2501# t  C3 {! W% s- z$ I
Stream size : 21.4 MiB (0%). G  |& x2 B$ Y. W6 |; {* A
Title : Croatian
; A+ U9 n1 O, f+ @Language : Croatian
$ `0 f8 s3 M. R0 ?" P5 t% {6 Z9 gDefault : No
7 S& _3 r4 ~7 t! LForced : No
9 W- I  I4 T; Z/ ~, u2 d* H8 I' x0 `! m/ Z

4 n7 A! C3 H) N6 _# uText #199 Z+ s4 D: i; u& M+ O3 f
ID : 22
: ]% _+ e6 G9 K8 |5 R; OFormat : PGS
. E2 Y: y8 G4 K$ W, JMuxing mode : zlib( F4 n( F: x0 ]% q/ A/ g" h4 u) M
Codec ID : S_HDMV/PGS% R2 H; Y& Y$ L) s# Q# B
Codec ID/Info : Picture based subtitle format used on BDs/HD-DVDs  ]% I- x5 [. j+ j' {% ^, K3 b
Duration : 1 h 49 min
4 N$ s0 E$ A; F% I; ^. A1 l- GBit rate : 28.6 kb/s
8 r: y6 X5 n/ m( u/ HCount of elements : 2511
8 N& A  i, ?# y5 c7 GStream size : 22.5 MiB (0%)  V- ~2 D& O) ]: z. y; k: s
Title : Bulgarian1 ^6 H7 i4 j" J5 P3 t& U% M3 H
Language : Bulgarian3 J  Y$ s  i- |, w. {
Default : No# I' i/ C. J. q% A- c
Forced : No) t, ]8 T) o7 h0 X) J
! H( p( N8 T0 j- b) s; h$ d# B

$ U, G1 a- `( s& y% c7 zText #201 W# \8 D) i3 Z+ b' S: Y- ~1 I2 v
ID : 23
- C+ W) g- A- h7 k+ }  `" WFormat : PGS+ p6 h9 z* S) o+ U
Muxing mode : zlib7 p9 I$ t8 K: o( A. m) M- f
Codec ID : S_HDMV/PGS
( L1 H, k2 h3 e2 j, ^. cCodec ID/Info : Picture based subtitle format used on BDs/HD-DVDs
" r7 `; b; h+ i2 D# \6 R* E0 KDuration : 1 h 48 min8 n+ X* `, ]4 W" }' ?% w3 o- G3 s
Bit rate : 29.4 kb/s% T% x) R5 h9 B: T1 V5 M
Count of elements : 24693 H7 V% R8 p# K5 z- Z$ r
Stream size : 22.7 MiB (0%)
, n  {& j0 {' r, e4 I/ l& xTitle : Greek8 k1 C3 f$ y9 {; g- z
Language : Greek
1 L- V* f* c5 j5 v# k4 \+ lDefault : No
% T9 _9 P3 X+ f9 Q* GForced : No
$ @# T) l; q3 i- k( C) ^/ g! o4 p4 m1 U" N+ e8 F
" |" z- H# i) H# V2 w* t
Text #21
8 R! C! v/ A3 i" QID : 24
1 U8 L+ \9 C- l. pFormat : PGS
7 q; Z" J& N; }9 g* r; |( HMuxing mode : zlib
6 j9 E% B, t3 F' z/ ^Codec ID : S_HDMV/PGS
, w' C& a' @  s" ^/ X8 qCodec ID/Info : Picture based subtitle format used on BDs/HD-DVDs
6 T% @& k* n; R2 L3 C( UDuration : 1 h 47 min" ^) }4 l2 G6 B% y4 O  c
Bit rate : 29.4 kb/s
- r* E! P2 H  t% ]Count of elements : 2421
& B% Z. J7 `2 ~Stream size : 22.7 MiB (0%)1 ?9 N1 `1 E! k7 C3 b1 V! V
Title : Turkish
% o' O( T/ w+ h4 G$ F' Q( }+ [Language : Turkish+ @/ j" h( z: T, O
Default : No
$ p, p7 V) @( s- bForced : No3 R; I' B; I' \3 s: I2 w
9 A7 c7 y" ~6 D
5 O5 r( d  N; y, w
Text #22
9 j" A' e9 Y8 rID : 25& ~% a3 ], G* f! N/ L; _
Format : PGS5 i1 w( l' P! T5 I
Muxing mode : zlib' [8 K8 g4 r# B
Codec ID : S_HDMV/PGS
1 N. c5 D% b3 OCodec ID/Info : Picture based subtitle format used on BDs/HD-DVDs0 U) E  {# b. [- f( d/ t
Duration : 1 h 47 min
1 ]/ [# B& t/ w/ }# [Bit rate : 16.3 kb/s
  \) S" f, d1 v3 ?( A9 Y# }Count of elements : 2425
# t4 e8 N- L. S( N$ s( L' u) DStream size : 12.6 MiB (0%)3 _! E; Q; S4 x9 K4 v
Title : Arabic
$ V6 M% f4 l5 `; c9 E! j' MLanguage : Arabic
; f, k1 r/ C1 X) qDefault : No
' ?& V  I# S1 l* u4 f& E  c; C5 xForced : No
/ @# q% E4 T% d, L* c+ z
$ P) t$ x: U4 u' e7 ?
6 W( g  P% Z1 K' m! M
Text #23
* z$ b3 [8 H6 S1 H& O$ N" T2 ^, b7 vID : 26# n4 D  A2 b/ Q% G1 p3 ~' [2 {
Format : PGS
( J2 W: x9 p- V- I) GMuxing mode : zlib
, {5 H6 E! F) p  g% hCodec ID : S_HDMV/PGS/ X2 ^/ W9 J" d- |2 a8 q. P
Codec ID/Info : Picture based subtitle format used on BDs/HD-DVDs
0 k/ |- R5 v- b& F$ `Duration : 1 h 47 min
) [. l7 z0 m1 e3 rBit rate : 22.1 kb/s
. T- {6 z( \8 G/ DCount of elements : 2435
/ y- R9 _  {1 D) {3 ZStream size : 17.1 MiB (0%)
+ \9 A( g8 M$ p1 y- S3 o9 m& |5 t2 CTitle : Hebrew
: j: I+ I' V, g$ M/ ~* v/ X( X8 X1 \Language : Hebrew
- M0 S; [& V: Y- N6 W: b1 x4 _9 }Default : No; P  K1 w+ O6 B' i6 t
Forced : No
3 W; u2 F4 F# s1 }1 _  G8 j
! E& ?0 N- m$ L7 F- T& j

3 H  a" Z& W6 C4 B1 k* PText #24
1 w& h+ X4 m  YID : 27
  \# x+ h& ]$ QFormat : PGS2 a7 B$ R  f0 R  s
Muxing mode : zlib+ @5 N! R3 O& p0 l7 J- k
Codec ID : S_HDMV/PGS
6 q; b/ ~1 g$ zCodec ID/Info : Picture based subtitle format used on BDs/HD-DVDs  Y3 w. E0 t3 T
Duration : 1 h 51 min( L6 V* l* l2 a2 Q
Bit rate : 21.2 kb/s
& K+ I: U1 E$ l( M4 ?( L- W: K# CCount of elements : 2206
" q, t, i7 d& [. v6 O) h5 RStream size : 16.9 MiB (0%)
$ Z  T+ B. h4 y/ iTitle : Japanese1 H* J1 r: s9 h8 D! j; X
Language : Japanese: @3 x* b  _: o# K9 Q- P7 P6 v8 b9 j
Default : No
! H3 r2 A0 d- P" J5 [# fForced : No
# N4 e% J9 T0 L- \4 r  V$ u, X6 C5 o- ^  x" b2 }; d
" z, ?6 r" N& g. @$ w. a
Text #252 ?( ?6 `% z3 I" r( A; I, x
ID : 283 L" Z& n- a# t1 {
Format : PGS
& Y0 o. I' ~4 W# v( ?" t# G* M- JMuxing mode : zlib5 |) L, }: l) L$ z
Codec ID : S_HDMV/PGS7 c5 C" R- o) t6 Z2 R
Codec ID/Info : Picture based subtitle format used on BDs/HD-DVDs
$ V) t- T' F' N5 n7 k( B! @. e  }Duration : 1 h 51 min5 K# E4 h# X/ F" m
Bit rate : 27.9 kb/s% ^0 F1 E  j, @" d0 x
Count of elements : 2511& |+ E) J8 N$ E5 v4 {5 D% d
Stream size : 22.2 MiB (0%)' E: l- x  e: L8 G' G/ _, n
Title : Chinese  ^2 O( Q: m7 Z+ w/ v/ J5 x
Language : Chinese7 u0 T# H$ O! l: Y0 A- h" D
Default : No
- J8 J# {9 K. g0 n7 w4 C5 c) LForced : No$ @  P0 k$ W" d, U: |# S2 O0 \% a- B

  l; m* z8 }7 F3 W4 b, D6 l# K
! w* l- m3 W6 B2 w" J* w. o
Text #26
+ \: x/ y; T" U) ?1 h2 cID : 29( |& O+ z8 ~3 _' S2 q/ P" J
Format : PGS: ]4 z! C. J' b; Q) b* ~
Muxing mode : zlib  {" Q2 O8 f& e/ K+ h
Codec ID : S_HDMV/PGS
( C2 _7 p. @+ ^, i* P7 {# r( f' M. ECodec ID/Info : Picture based subtitle format used on BDs/HD-DVDs4 M6 g( U8 C7 ]7 u
Duration : 1 h 51 min; f+ g' c) `& C5 v7 Z2 r
Bit rate : 27.2 kb/s7 Q2 u. o! x' q6 H
Count of elements : 2511
: [% c6 K' K+ i# x  OStream size : 21.7 MiB (0%)! n' i8 i' F# ~8 Q; T$ [. z
Title : Chinese
! u$ H  k% f2 I6 G! a) y/ i; V! @; fLanguage : Chinese; R! k; d& J/ Q  R7 }& ?$ X
Default : No
# v' M" L9 L. C+ |Forced : No

$ Y9 k9 F, B# b  [
9 C9 A- W: f) q' ?, z蓝光高清网提示您  点击下方附件名称即可开始下载6 l0 b6 v, O# f) k$ W3 T: z
7 H, S* h4 q$ Q; F) \- B( ~
% f* S) W: u$ f9 u2 Y
的士司机(港) / 计程车司机(台) / 出租汽车司机/出租车司机4k Taxi.Driver.1976.2160p.UHD.BluRay.x265.10bit.HDR.DTS-HD.MA.5.1-4k电影下载
% m$ `1 }1 T% d! L# N7 t: S% W2 }1 s
出租车司机4k Taxi.Driver.1976.2160p.UHD.BluRay.x265.10bit.HDR.DTS-HD.MA.5.1【33.45 GB】【自带中字】7 Q# H; a, ~9 Y8 N" t
(大小:)
) g6 U; p4 h' r: l9 W& m$ X
. E5 d$ v: q3 X) o! P% c  f( R6 q

作者: slj602    时间: 2021-9-19 21:06
感谢楼主发帖




欢迎光临 蓝光高清网 (https://www.1080pro.net/) Powered by Discuz! X3.4