蓝光高清网

开启左侧

清道夫电影版 / Ray Donovan: The Movie/清道夫:布局4K.Ray.Donovan.The.Movie.2022.2160p.WEB-DL.x265.10bit.HDR.DDP5.1-电影下载-10.65 GB

[复制链接]

2022-1-15 12:54:30 5035 2

蓝鸟 发表于 2022-1-14 19:41:45 |阅读模式

蓝鸟 楼主

2022-1-14 19:41:45

清道夫:布局
上映时间:2022年
类型:剧情 
地区:美国 
导演:戴维·霍兰德
主演:列维·施瑞博尔 / 凯瑞斯·多西 / 强·沃特 / 凯瑞·康顿 / 埃迪·马森
画质标准:4K HDR  封装音轨:Dolby TrueHD 5.1 Dolby Atmos 
豆瓣评分:无评分
简       介
! }; X( i7 E) T- {' F" X5 Y* N, Y; K
       列维·施瑞博尔主演的Showtime剧集《清道夫》将推出电影版!施瑞博尔将回归主演,并将与剧集运作人戴维·霍兰德共同操刀剧本,霍兰德担任该片导演。强·沃特、凯瑞斯·多西也将回归出演。该片故事将承接《清道夫》第七季,米奇继续出手,雷决心在他造成更多屠杀之前找到他并阻止他。该片计划于今年晚些时候在纽约开拍。% s0 y! O, z1 w8 j

  A: M: X) s. D! x0 e3 E( P. C( `+ |
) Y& A) I! A4 l4 r: f1 ]- e; N; T
影片参数
4 ]4 C0 m) Q/ c0 n# q( x0 n  H
清道夫电影版 / Ray Donovan: The Movie/清道夫:布局4K.Ray.Donovan.The.Movie.2022.2160p.WEB-DL.x265.10bit.HDR.DDP5.1-电影信息
  @' v  z, f1 H$ s; _1 EVideo
% D& E) I5 @+ [* f$ v/ S. XID : 14 ]* y4 w3 y/ L6 P. W0 ^) H
Format : HEVC
0 D7 j# `" G6 `0 X8 Z$ \/ @8 ~! oFormat/Info : High Efficiency Video Coding
1 J3 |& [' z# wFormat profile : Main 10@L5@Main  |, Y# q8 J! y2 q4 p  ^
HDR format : SMPTE ST 2086, HDR10 compatible
, F' m! y3 w9 p6 uCodec ID : V_MPEGH/ISO/HEVC1 h4 u  G# p/ D/ o4 @
Duration : 1 h 39 min
! v* F5 Q+ Z& N  H! E1 ?6 kBit rate : 14.6 Mb/s
. W6 d: d5 e$ T& EWidth : 3 840 pixels/ c& d/ [  a0 G3 m9 l( z# p
Height : 2 160 pixels
. R* j" b6 e9 c! e& @% ZDisplay aspect ratio : 16:9
7 w# i0 I7 u$ X4 ZFrame rate mode : Constant
0 a4 O: E* ~+ g/ uFrame rate : 23.976 (24000/1001) FPS7 E. T% W2 G$ Y/ @  o3 Q1 v, W
Color space : YUV; A" |# ]! C  S
Chroma subsampling : 4:2:0
3 E. f; J. p4 ^. A' nBit depth : 10 bits, Q2 {/ C+ v; U4 S& n
Bits/(Pixel*Frame) : 0.074
% F9 Q+ I9 W6 r% R* r5 y3 O! e% UStream size : 10.2 GiB (96%)
/ s" M. a+ b) u8 T, h; wWriting library : x265 3.4hy:[Linux][GCC 7.5.0][64 bit] 10bit
1 U# `/ w; Q( H9 i$ x3 ^2 y7 UEncoding settings : cpuid=1111039 / frame-threads=6 / no-wpp / no-pmode / no-pme / no-psnr / no-ssim / log-level=2 / input-csp=1 / input-res=3840x2160 / interlace=0 / total-frames=0 / level-idc=0 / high-tier=1 / uhd-bd=0 / ref=4 / no-allow-non-conformance / repeat-headers / annexb / aud / hrd / info / hash=0 / no-temporal-layers / no-open-gop / min-keyint=48 / keyint=48 / gop-lookahead=0 / bframes=4 / b-adapt=2 / b-pyramid / bframe-bias=0 / rc-lookahead=48 / lookahead-slices=4 / scenecut=0 / hist-scenecut=0 / radl=0 / no-splice / no-intra-refresh / ctu=64 / min-cu-size=8 / rect / no-amp / max-tu-size=32 / tu-inter-depth=1 / tu-intra-depth=1 / limit-tu=0 / rdoq-level=2 / dynamic-rd=0.00 / no-ssim-rd / signhide / no-tskip / nr-intra=100 / nr-inter=400 / no-constrained-intra / strong-intra-smoothing / max-merge=3 / limit-refs=3 / limit-modes / me=3 / subme=3 / merange=57 / temporal-mvp / no-frame-dup / no-hme / weightp / no-weightb / no-analyze-src-pics / deblock=0:0 / sao / no-sao-non-deblock / rd=4 / selective-sao=4 / no-early-skip / rskip / no-fast-intra / no-tskip-fast / no-cu-lossless / no-b-intra / no-splitrd-skip / rdpenalty=0 / psy-rd=0.00 / psy-rdoq=1.00 / no-rd-refine / no-lossless / cbqpoffs=0 / crqpoffs=3 / rc=abr / bitrate=15000 / qcomp=0.60 / qpstep=4 / stats-write=0 / stats-read=2 / cplxblur=20.0 / qblur=0.5 / vbv-maxrate=18000 / vbv-bufsize=12000 / vbv-init=0.6 / vbv-end=0.6 / vbv-end-fr-adj=0.0 / ipratio=1.40 / pbratio=1.30 / aq-mode=2 / aq-strength=1.00 / cutree / zone-count=0 / no-strict-cbr / qg-size=32 / no-rc-grain / qpmax=69 / qpmin=0 / no-const-vbv / sar=1 / overscan=0 / videoformat=5 / range=0 / colorprim=9 / transfer=16 / colormatrix=9 / chromaloc=0 / display-window=0 / master-display=G(13250,34500)B(7500,3000)R(34000,16000)WP(15635,16450)L(10000000,1) / cll=0,0 / min-luma=0 / max-luma=1023 / log2-max-poc-lsb=8 / vui-timing-info / vui-hrd-info / no-concatenation / slices=1 / no-opt-qp-pps / no-opt-ref-list-length-pps / no-multi-pass-opt-rps / scenecut-bias=0.05 / hist-threshold=0.01 / no-opt-cu-delta-qp / no-aq-motion / hdr10 / no-hdr10-opt / no-dhdr10-opt / no-idr-recovery-sei / analysis-reuse-level=0 / analysis-save-reuse-level=0 / analysis-load-reuse-level=0 / scale-factor=0 / refine-intra=0 / refine-inter=0 / refine-mv=1 / refine-ctu-distortion=0 / no-limit-sao / ctu-info=0 / no-lowpass-dct / refine-analysis-type=0 / copy-pic=1 / max-ausize-factor=1.0 / no-dynamic-refine / no-single-sei / no-hevc-aq / no-svt / no-field / qp-adaptation-range=1.00 / no-scenecut-aware-qpconformance-window-offsets / right=0 / bottom=0 / decoder-max-rate=0
3 _! D2 |0 n+ ?* o+ O% xDefault : Yes  l7 a! ]/ @6 @
Forced : No/ @7 Y/ X3 R- X) r7 r" J, d4 \
Color range : Limited% \! j* J$ T1 n. a6 d, f
Color primaries : BT.2020, q# Z. R  s- ]9 I8 c
Transfer characteristics : PQ
  T. {& L- p% Q! P, }: U2 YMatrix coefficients : BT.2020 non-constant
* Y$ Q; I8 p, a3 L8 ^. e; [- NMastering display color primaries : Display P3
6 s& Z; e5 d& ^7 h! RMastering display luminance : min: 0.0001 cd/m2, max: 1000 cd/m2
7 j5 S  p( l% H
6 _/ }5 E) _* s' g/ {; H
6 L9 ~- T% V- m& V9 a/ ]- C/ T
Audio
' @4 J6 _8 U2 y6 Y/ v$ PID : 2
7 B5 [; p8 h/ J& v" }Format : E-AC-3
$ t; n) v/ D2 L/ P# y! n# ^Format/Info : Enhanced AC-34 Y2 J) }( q" i* j$ D8 Q1 Z" O
Commercial name : Dolby Digital Plus
8 G. G: n* J# R  VCodec ID : A_EAC3
8 p: c( d3 t: U3 G& R0 TDuration : 1 h 39 min" e0 d- P7 ]' Y2 [, x6 R
Bit rate mode : Constant
! s+ T5 |; Q( j( M. OBit rate : 640 kb/s3 T0 h1 Q% W3 ~+ T) r
Channel(s) : 6 channels" g/ V6 y0 ~! _3 |/ z
Channel layout : L R C LFE Ls Rs
& m; z" `7 G) [# pSampling rate : 48.0 kHz
$ G$ y0 A0 S5 n# fFrame rate : 31.250 FPS (1536 SPF)9 n% h. ^( p2 @2 ?/ N& d" w
Compression mode : Lossy8 e/ [% U- t  Z1 V
Delay relative to video : 28 ms6 q# q  H. i$ N" ?& F4 h3 `" M
Stream size : 457 MiB (4%)% {4 O& y0 d% |5 S
Language : English
  h+ T2 x5 K) w. ^- hService kind : Complete Main. q5 Q) `. M/ H" @, }0 t
Default : Yes1 ?; _8 d! k( G. b7 J# ?" Q' [4 ~, _
Forced : No- W4 A8 W9 z+ r, A* ]% G- @; X
, A+ t6 R. g9 G
. X. N3 C4 A" D- m- y
Text #14 k: N! z  Y& o
ID : 3* F. S/ J1 W& X# H
Format : UTF-8
3 |3 j$ f& j- l  HCodec ID : S_TEXT/UTF80 `! Y: X; v( D0 j* F( {; h# A% A/ Y' I
Codec ID/Info : UTF-8 Plain Text$ c0 z5 B4 e' W1 B0 Q$ C3 K
Duration : 1 h 37 min
+ ?2 t  U# K  i3 n  i, y' HBit rate : 50 b/s
4 Q/ h8 T% v" E4 X" \9 hCount of elements : 1082
7 Z2 {8 I8 G4 x4 ?/ C; q) o8 EStream size : 36.6 KiB (0%)
2 O9 L1 @+ r( [/ f) rLanguage : English
; a8 n5 K( f' u! N# s1 mDefault : No1 q. k& K* Q& {6 @% s4 J: n2 m6 \
Forced : No
0 G5 o  y/ F1 c0 @& J
8 L) k, [3 j4 W, E: X# K0 P! }) v

+ X6 a% [8 R( Q7 T# Y0 GText #2
" X; h9 W( S/ ^5 x# KID : 4) ^' H0 X: J% |+ E. L8 q  V
Format : UTF-8
: k) T& M2 |+ E, A- A$ gCodec ID : S_TEXT/UTF8
- d- t, q6 c+ s; jCodec ID/Info : UTF-8 Plain Text( T' J$ Z$ ]+ `. i4 Y3 i' x
Duration : 1 h 39 min/ C9 P2 m4 _0 h! O0 ?
Bit rate : 136 b/s
3 E: d  I8 p. n$ {- ]6 ACount of elements : 1362+ i, k* T* w7 d( o$ L
Stream size : 99.3 KiB (0%)
+ T* v* m1 m2 {. t6 Q( _  \Title : SDH
/ q( {+ |! U  ~+ A* J) T2 GLanguage : English
1 V2 ]1 Z- j, LDefault : No  P; o  ?4 o4 x0 u" @$ ]4 ?
Forced : No

& V$ d1 {! |' D2 i4 m# J
) a/ r2 o5 h3 W! X蓝光高清网提示您 点击下方附件名称 即可开始下载6 R$ |: r0 o+ \8 I& _# W
9 n& B# x' T1 N9 V; i6 Z
% f: W: P1 t& }4 D& ~
多版本下载时请注意区分
1 x" f% P7 X5 t" F+ j1 a' c1 V% R5 ~2 E0 r0 z: Y. p5 x

- d4 s% q- X0 k清道夫电影版 / Ray Donovan: The Movie/清道夫:布局4K.Ray.Donovan.The.Movie.2022.2160p.WEB-DL.x265.10bit.HDR.DDP5.1-4k电影下载% g# K2 a& U2 u! d6 e7 E

. P( z$ }2 f5 y( A清道夫:布局4K.Ray.Donovan.The.Movie.2022.2160p.WEB-DL.x265.10bit.HDR.DDP5.1【10.65 GB】: }0 m/ V* k' [+ y5 I. N: y
清道夫:布局4K.Ray.Donovan.The.Movie.2022.2160p.WEB-DL.x265.10bit.HDR.DDP5.1-TEPES.torrent (13.97 KB)
加入蓝光高清网VIP会员  无限制下载本站所有资源---点这里

资源下载、资源播放、字幕使用、无法下载等常见问题---点这里
回复

使用道具 举报

全部回复2

再会未来 发表于 2022-1-15 09:28:13

再会未来 沙发

2022-1-15 09:28:13

谢谢分享
回复

使用道具 举报

H837189691手机认证 发表于 2022-1-15 12:54:30 来自手机

H837189691 板凳

2022-1-15 12:54:30

好看不,回去下载看看,好看推荐
回复 支持 反对

使用道具 举报

发表回复

您需要登录后才可以回帖 登录 | 立即注册

返回列表 本版积分规则

  • 发帖

  • 在线客服

  • 微信

  • 客户端

  • 返回顶部