[恐怖] 灵动:鬼影实录 Paranormal.Activity.2007.DC.2in1.1080p.BluRay.x264.DTS-FGT 7.7GB

[复制链接]
蓝鸟VIP会员 永久VIP 发表于 2019-8-21 21:13:32 | 显示全部楼层 |阅读模式 打印 上一主题 下一主题

马上注册,轻松下载,海量资源,让你轻松玩转社区。

您需要 登录 才可以下载或查看,没有帐号?立即注册

x


◎译  名 灵动:鬼影实录/午夜灵异录像(港)/超自然现象
◎片  名 Paranormal Activity
◎年  代 2007
◎国  家 美国
◎类  别 悬疑/恐怖
◎语  言 英语
◎上映日期 2007-10-14(洛杉矶尖叫电影节)/2009-09-25(美国)
◎IMDb评分  6.3/10 from 166,572 users
◎IMDb链接  http://www.imdb.com/title/tt1179904/
◎豆瓣评分 6.4/10 from 21,886 users
◎豆瓣链接 http://movie.douban.com/subject/3011550/
◎片  长 97分钟
◎导  演 Oren Peli
◎主  演 凯蒂·菲德斯通 Katie Featherston
      Micah Sloat
      Mark Fredrichs
◎简  介
  自由职业者米克(Micah Sloat 饰)和女友凯蒂(Katie Featherston 饰)搬到一幢新的房子里,兴奋的米克搞来一台摄像机,跟踪拍摄他们俩人的点点滴滴,起卧坐行。但是,他们的兴奋很快就被莫名的不安所取代。除了他们俩外,似乎还有其他的生命藏在这座空旷的房子内。凌晨两三点钟,卧室房间一角的摄像机便真实记录下那些异常发生的事件。随着时间的流逝,灵异事件愈演愈烈,凯蒂无法忍受想要搬走,米克却兴奋地想将这个事件拍成电影。他不知道,当他真正想离开时为时已晚……
  本片为导演Oren Peli的处女作,成本仅为11000美元,却在口耳相传下获得千倍的收益,并荣获2007年惊叫电影节荣誉提及。
◎获奖情况
  第19届MTV电影奖 (2010)
  MTV电影奖 最佳惊恐戏表演(提名) 凯蒂·菲德斯通
  第12届美国青少年选择奖 (2010)
  最佳恐怖/惊悚电影
  最佳恐怖/惊悚电影男演员(提名) Micah Sloat
Video
ID                                       : 1
Format                                   : AVC
Format/Info                              : Advanced Video Codec
Format profile                           : [email protected]
Format settings, CABAC                   : Yes
Format settings, ReFrames                : 4 frames
Codec ID                                 : V_MPEG4/ISO/AVC
Duration                                 : 1h 31mn
Bit rate                                 : 10.5 Mbps
Width                                    : 1 920 pixels
Height                                   : 1 080 pixels
Display aspect ratio                     : 16:9
Frame rate mode                          : Constant
Frame rate                               : 23.976 fps
Color space                              : YUV
Chroma subsampling                       : 4:2:0
Bit depth                                : 8 bits
Scan type                                : Progressive
Bits/(Pixel*Frame)                       : 0.212
Stream size                              : 6.58 GiB (85%)
Writing library                          : x264 core 80 r1376 3feaec2
Encoding settings                        : cabac=1 / ref=4 / deblock=1:-3:-3 / analyse=0x3:0x113 / me=umh / subme=10 / psy=1 / psy_rd=1.0:0.0 / mixed_ref=1 / me_range=32 / chroma_me=1 / trellis=2 / 8x8dct=1 / cqm=0 / deadzone=21,11 / fast_pskip=0 / chroma_qp_offset=-2 / threads=6 / sliced_threads=0 / nr=0 / decimate=0 / mbaff=0 / constrained_intra=0 / bframes=8 / b_pyramid=2 / b_adapt=2 / b_bias=0 / direct=3 / wpredb=1 / wpredp=2 / keyint=240 / keyint_min=24 / scenecut=40 / rc_lookahead=80 / rc=2pass / mbtree=1 / bitrate=10540 / ratetol=1.0 / qcomp=0.70 / qpmin=10 / qpmax=51 / qpstep=4 / cplxblur=20.0 / qblur=0.5 / ip_ratio=1.40 / aq=1:0.90
Language                                 : English
Default                                  : Yes
Forced                                   : No
Audio
ID                                       : 2
Format                                   : DTS
Format/Info                              : Digital Theater Systems
Mode                                     : 16
Format settings, Endianness              : Big
Codec ID                                 : A_DTS
Duration                                 : 1h 31mn
Bit rate mode                            : Constant
Bit rate                                 : 1 509 Kbps
Channel(s)                               : 6 channels
Channel positions                        : Front: L C R, Side: L R, LFE
Sampling rate                            : 48.0 KHz
Bit depth                                : 24 bits
Compression mode                         : Lossy
Stream size                              : 987 MiB (13%)
Language                                 : English
Default                                  : Yes
Forced                                   : No
Text
ID                                       : 3
Format                                   : UTF-8
Codec ID                                 : S_TEXT/UTF8
Codec ID/Info                            : UTF-8 Plain Text
Language                                 : English
Default                                  : No
Forced                                   : No

精彩剧照


                                       

蓝光高清网提示您 点击下方附件名称 马上开始下载



温馨提示:
本站资源优先使用迅雷下载,迅雷会员下载,速度基本可以跑满宽带
如果遇到无资源或者版权问题无法下载,推荐使用115网盘离线下载(点击查看115网盘离线下载教程


  • 该资源需要您回复以后 刷新网页进行下载操作

  • 1、Paranormal.Activity.2007.DC.2in1.1080p.BluRay.x264.DTS-FGT.torrent 78KB 已下载 0 次

加入蓝光高清网VIP会员  无限制下载本站所有资源---点此加入

资源下载、资源播放、字幕使用、无法下载等常见问题---点这里

回复

使用道具 举报

懒得打字嘛,点击右侧快捷回复
高级模式
B Color Image Link Quote Code Smilies 上传

本版积分规则

关注0

粉丝0

帖子68429

发布主题
最新电影 论坛
广告位
联系我们
点击这里联系客服

服务时间:
周一到周日8:00-23:30

  • 打开微信扫一扫
    关注公众号

  • 手机QQ扫一扫
    添加客服

Archiver手机版蓝光高清网 ( 渝ICP备18006373号-2 )|网站地图

Powered by Discuz! X3.4  © 2001-2013 Comsenz Inc.