[惊悚] 裸体切割/凶线第六感 In.the.Cut.2003.1080p.BluRay.x264.DTS-FGT 12GB

[复制链接]
蓝鸟VIP会员 永久VIP 发表于 2019-8-21 21:14:22 | 显示全部楼层 |阅读模式 打印 上一主题 下一主题

马上注册,轻松下载,海量资源,让你轻松玩转社区。

您需要 登录 才可以下载或查看,没有帐号?立即注册

x


◎译  名 裸体切割/凶线第六感
◎片  名 In the Cut
◎年  代 2003
◎国  家 美国/澳大利亚/英国
◎类  别 悬疑/爱情/惊悚
◎语  言 英语
◎上映日期 2003-10-22(美国)
◎IMDb评分  5.3/10 from 17,777 users
◎IMDb链接  http://www.imdb.com/title/tt0199626/
◎豆瓣评分 5.8/10 from 3,861 users
◎豆瓣链接 http://movie.douban.com/subject/1305418/
◎片  长 119 分钟/113 分钟(多伦多电影节)
◎导  演 简·坎皮恩 Jane Campion
◎主  演 梅格·瑞恩 Meg Ryan
      马克·鲁弗洛 Mark Ruffalo
      詹妮弗·杰森·李 Jennifer Jason Leigh
      凯文·贝肯 Kevin Bacon
◎简  介
  弗兰妮(梅格·瑞恩 Meg Ryan饰)是一名内向保守的大学教师。她跟妹妹一起住在纽约曼哈顿一间破旧窄小的单身公寓里。可单调的生活加之枯燥无味的工作远不能填满她内心的寂寞。弗兰妮在为一本研究美国俚语的书搜集资料,正巧,她在酒吧的洗手间里无意间窥视到了一对正在口交的男女。这一幕深深的刻在了她的脑海中,尤其是这名男子手腕上的纹身。
  时隔不久,探员马龙(马克·鲁弗洛 Mark Ruffalo饰)因为一起碎尸案找到了弗兰妮。她惊讶的发现,马龙手腕上的纹身跟酒吧洗手间里的男人一模一样。爱欲跟好奇激起了弗兰妮的强烈欲望,她深陷这黑暗的激情之中,忘却了一系列接连发生的女性被杀案似乎都跟马龙有着千丝万缕的关联……
Video
ID                                       : 1
Format                                   : AVC
Format/Info                              : Advanced Video Codec
Format profile                           : [email protected]
Format settings, CABAC                   : Yes
Format settings, ReFrames                : 4 frames
Codec ID                                 : V_MPEG4/ISO/AVC
Duration                                 : 1h 59mn
Bit rate                                 : 12.9 Mbps
Width                                    : 1 920 pixels
Height                                   : 1 032 pixels
Display aspect ratio                     : 1.85:1
Frame rate mode                          : Constant
Frame rate                               : 23.976 fps
Color space                              : YUV
Chroma subsampling                       : 4:2:0
Bit depth                                : 8 bits
Scan type                                : Progressive
Bits/(Pixel*Frame)                       : 0.272
Stream size                              : 10.5 GiB (88%)
Writing library                          : x264 core 129 r2245 bc13772
Encoding settings                        : cabac=1 / ref=4 / deblock=1:-2:-2 / analyse=0x3:0x113 / me=umh / subme=10 / psy=1 / psy_rd=1.20:0.20 / mixed_ref=1 / me_range=32 / chroma_me=1 / trellis=2 / 8x8dct=1 / cqm=0 / deadzone=21,11 / fast_pskip=0 / chroma_qp_offset=-3 / threads=12 / lookahead_threads=2 / sliced_threads=0 / nr=0 / decimate=0 / interlaced=0 / bluray_compat=0 / constrained_intra=0 / bframes=5 / b_pyramid=2 / b_adapt=2 / b_bias=0 / direct=3 / weightb=1 / open_gop=0 / weightp=2 / keyint=240 / keyint_min=1 / scenecut=40 / intra_refresh=0 / rc_lookahead=60 / rc=2pass / mbtree=0 / bitrate=12930 / ratetol=1.0 / qcomp=0.60 / qpmin=10 / qpmax=51 / qpstep=4 / cplxblur=20.0 / qblur=0.5 / vbv_maxrate=38000 / vbv_bufsize=38000 / nal_hrd=none / ip_ratio=1.40 / pb_ratio=1.30 / aq=1:1.00
Language                                 : English
Default                                  : Yes
Forced                                   : No
Audio
ID                                       : 2
Format                                   : DTS
Format/Info                              : Digital Theater Systems
Mode                                     : 16
Format settings, Endianness              : Big
Codec ID                                 : A_DTS
Duration                                 : 1h 59mn
Bit rate mode                            : Constant
Bit rate                                 : 1 509 Kbps
Channel(s)                               : 6 channels
Channel positions                        : Front: L C R, Side: L R, LFE
Sampling rate                            : 48.0 KHz
Bit depth                                : 16 bits
Compression mode                         : Lossy
Stream size                              : 1.25 GiB (10%)
Language                                 : English
Default                                  : Yes
Forced                                   : No
Menu
00:00:00.000                             : :Chapter 01
00:10:27.710                             : :Chapter 02
00:17:05.733                             : :Chapter 03
00:22:42.361                             : :Chapter 04
00:28:02.514                             : :Chapter 05
00:34:56.011                             : :Chapter 06
00:38:48.868                             : :Chapter 07
00:45:04.452                             : :Chapter 08
00:47:58.583                             : :Chapter 09
00:54:02.573                             : :Chapter 10
01:02:45.804                             : :Chapter 11
01:05:56.411                             : :Chapter 12
01:10:56.252                             : :Chapter 13
01:17:37.152                             : :Chapter 14
01:22:15.680                             : :Chapter 15
01:26:38.985                             : :Chapter 16
01:33:16.966                             : :Chapter 17
01:36:41.337                             : :Chapter 18
01:46:19.832                             : :Chapter 19
01:54:18.185                             : :Chapter 20

精彩剧照


                                       

蓝光高清网提示您 点击下方附件名称 马上开始下载



温馨提示:
本站资源优先使用迅雷下载,迅雷会员下载,速度基本可以跑满宽带
如果遇到无资源或者版权问题无法下载,推荐使用115网盘离线下载(点击查看115网盘离线下载教程


  • 该资源需要您回复以后 刷新网页进行下载操作

  • 1、In.the.Cut.2003.1080p.BluRay.x264.DTS-FGT.torrent 61KB 已下载 0 次

加入蓝光高清网VIP会员  无限制下载本站所有资源---点此加入

资源下载、资源播放、字幕使用、无法下载等常见问题---点这里

回复

使用道具 举报

精彩评论1

sumnerboy 发表于 2019-8-21 21:17:13 | 显示全部楼层
下载来看看

加入蓝光高清网VIP会员  无限制下载本站所有资源---点此加入

资源下载、资源播放、字幕使用、无法下载等常见问题---点这里

回复

使用道具 举报

懒得打字嘛,点击右侧快捷回复
高级模式
B Color Image Link Quote Code Smilies 上传

本版积分规则

关注0

粉丝0

帖子66311

发布主题
最新电影 论坛
广告位
联系我们
点击这里联系客服

服务时间:
周一到周日8:00-23:30

  • 打开微信扫一扫
    关注公众号

  • 手机QQ扫一扫
    添加客服

Archiver手机版蓝光高清网 ( 渝ICP备18006373号-2 )|网站地图

Powered by Discuz! X3.4  © 2001-2013 Comsenz Inc.