[惊悚] 看见恶魔/我看见恶魔 I.Saw.The.Devil.2010.KOREAN.1080p.BluRay.x264.DTS-FGT 12.98GB

[复制链接]
蓝鸟VIP会员 永久VIP 发表于 2019-8-21 21:15:14 | 显示全部楼层 |阅读模式 打印 上一主题 下一主题

马上注册,轻松下载,海量资源,让你轻松玩转社区。

您需要 登录 才可以下载或查看,没有帐号?立即注册

x


◎译  名 看见恶魔/我看见恶魔
◎片  名 ??? ???
◎年  代 2010
◎国  家 韩国
◎类  别 剧情/犯罪/惊悚
◎语  言 韩语
◎上映日期 2010-08-11(韩国)
◎IMDb评分  7.8/10 from 60,377 users
◎IMDb链接  http://www.imdb.com/title/tt1588170/
◎豆瓣评分 7.4/10 from 18,232 users
◎豆瓣链接 http://movie.douban.com/subject/4280770/
◎片  长 144分钟
◎导  演 金知云 Jee-woon Kim
◎主  演 崔岷植 Min-sik Choi
      李秉宪 Lee Byeong-Heon
◎简  介
  供职于国情局的青年警员金秀贤(李秉宪 饰)即将和心爱的女孩珠燕走入婚姻的殿堂,但是在一个飘雪之夜,独自驱车夜归的珠燕被人残忍杀害并分尸。秀贤痛不欲生,他找到四个主要嫌疑人的照片,开始独立追查凶手。经过一番调查,终于将目标锁定在为某学院包车的中年大叔张京哲(崔岷植 饰)的身上。张生活坎坷,性格极度扭曲,他经常袭击夜归的女子,并将她们无情杀害。秀贤找到张的据点,对其进行残酷的惩罚,却最终手下留情。侥幸活命的张反而由此激发所有的兽性,一场野兽对野兽的修罗之战渐次激烈……
  本片也部分镜头过于血腥而成为韩国首部被限制上映的商业影片。
Video
ID                                       : 1
Format                                   : AVC
Format/Info                              : Advanced Video Codec
Format profile                           : [email protected]
Format settings, CABAC                   : Yes
Format settings, ReFrames                : 4 frames
Codec ID                                 : V_MPEG4/ISO/AVC
Duration                                 : 2h 22mn
Bit rate                                 : 11.6 Mbps
Width                                    : 1 920 pixels
Height                                   : 1 040 pixels
Display aspect ratio                     : 1.85:1
Frame rate mode                          : Constant
Frame rate                               : 23.976 fps
Color space                              : YUV
Chroma subsampling                       : 4:2:0
Bit depth                                : 8 bits
Scan type                                : Progressive
Bits/(Pixel*Frame)                       : 0.242
Stream size                              : 11.2 GiB (86%)
Writing library                          : x264 core 115 r1995 c1e60b9
Encoding settings                        : cabac=1 / ref=4 / deblock=1:-3:-3 / analyse=0x3:0x113 / me=umh / subme=10 / psy=1 / psy_rd=1.00:0.10 / mixed_ref=1 / me_range=32 / chroma_me=1 / trellis=2 / 8x8dct=1 / cqm=0 / deadzone=21,11 / fast_pskip=0 / chroma_qp_offset=-2 / threads=6 / sliced_threads=0 / slices=4 / nr=0 / decimate=1 / interlaced=0 / bluray_compat=0 / constrained_intra=0 / bframes=7 / b_pyramid=2 / b_adapt=2 / b_bias=0 / direct=1 / weightb=1 / open_gop=0 / weightp=2 / keyint=250 / keyint_min=23 / scenecut=40 / intra_refresh=0 / rc_lookahead=40 / rc=2pass / mbtree=0 / bitrate=11568 / ratetol=1.0 / qcomp=0.60 / qpmin=10 / qpmax=51 / qpstep=4 / cplxblur=20.0 / qblur=0.5 / vbv_maxrate=50000 / vbv_bufsize=50000 / nal_hrd=none / ip_ratio=1.40 / pb_ratio=1.30 / aq=1:1.00
Language                                 : English
Default                                  : No
Forced                                   : No
Audio
ID                                       : 2
Format                                   : DTS
Format/Info                              : Digital Theater Systems
Mode                                     : 16
Format settings, Endianness              : Big
Codec ID                                 : A_DTS
Duration                                 : 2h 22mn
Bit rate mode                            : Constant
Bit rate                                 : 1 509 Kbps
Channel(s)                               : 6 channels
Channel positions                        : Front: L C R, Side: L R, LFE
Sampling rate                            : 48.0 KHz
Bit depth                                : 24 bits
Compression mode                         : Lossy
Stream size                              : 1.50 GiB (12%)
Language                                 : Korean
Default                                  : Yes
Forced                                   : No
Menu
00:00:00.000                             : en:00:00:00.000
00:09:44.166                             : en:00:09:44.166
00:14:13.394                             : en:00:14:13.394
00:19:52.524                             : en:00:19:52.524
00:23:27.405                             : en:00:23:27.405
00:36:21.762                             : en:00:36:21.762
00:45:24.930                             : en:00:45:24.930
00:56:03.109                             : en:00:56:03.109
01:02:09.559                             : en:01:02:09.559
01:13:04.546                             : en:01:13:04.546
01:17:05.787                             : en:01:17:05.787
01:27:45.260                             : en:01:27:45.260
01:40:43.287                             : en:01:40:43.287
01:49:49.291                             : en:01:49:49.291
02:06:36.005                             : en:02:06:36.005
02:19:35.075                             : en:02:19:35.075

精彩剧照


                                       

蓝光高清网提示您 点击下方附件名称 马上开始下载



温馨提示:
本站资源优先使用迅雷下载,迅雷会员下载,速度基本可以跑满宽带
如果遇到无资源或者版权问题无法下载,推荐使用115网盘离线下载(点击查看115网盘离线下载教程


  • 该资源需要您回复以后 刷新网页进行下载操作

  • 1、I.Saw.The.Devil.2010.KOREAN.1080p.BluRay.x264.DTS-FGT.torrent 66KB 已下载 1 次

加入蓝光高清网VIP会员  无限制下载本站所有资源---点此加入

资源下载、资源播放、字幕使用、无法下载等常见问题---点这里

回复

使用道具 举报

懒得打字嘛,点击右侧快捷回复
高级模式
B Color Image Link Quote Code Smilies 上传

本版积分规则

关注0

粉丝0

帖子69274

发布主题
最新电影 论坛
广告位
联系我们
点击这里联系客服

服务时间:
周一到周日8:00-23:30

  • 打开微信扫一扫
    关注公众号

  • 手机QQ扫一扫
    添加客服

Archiver手机版蓝光高清网 ( 渝ICP备18006373号-2 )|网站地图

Powered by Discuz! X3.4  © 2001-2013 Comsenz Inc.