[恐怖] 凶手就在门外/叠影谋杀案/抄袭者 Copycat.1995.1080p.BluRay.x264.DTS-FGT 8.74GB

[复制链接]
蓝鸟VIP会员 永久VIP 发表于 2019-8-21 21:16:04 | 显示全部楼层 |阅读模式 打印 上一主题 下一主题

马上注册,轻松下载,海量资源,让你轻松玩转社区。

您需要 登录 才可以下载或查看,没有帐号?立即注册

x


◎译  名 凶手就在门外/叠影谋杀案/抄袭者
◎片  名 Copycat
◎年  代 1995
◎国  家 美国
◎类  别 犯罪/悬疑/惊悚
◎语  言 英语
◎上映日期 1995-10-27
◎IMDb评分  6.6/10 from 39,803 users
◎IMDb链接  http://www.imdb.com/title/tt0112722/
◎豆瓣评分 6.8/10 from 1,335 users
◎豆瓣链接 http://movie.douban.com/subject/1294197/
◎片  长 123 分钟
◎导  演 乔恩·阿米尔 Jon Amiel
◎主  演 西格妮·韦弗 Sigourney Weaver
      霍利·亨特 Holly Hunter
      德蒙特·莫罗尼 Dermot Mulroney
      威廉·麦克纳马拉 William McNamara
      小哈里·康尼克 Harry Connick Jr.
      J.E. Freeman
      威尔·帕顿 Will Patton
      约翰·罗斯曼 John Rothman
      Shannon O Hurley
      Bob Greene
      Tony Haney
      Danny Kovacs
      Tahmus Rounds
      Scott DeVenney
      David Michael Silverman
◎简  介
  海伦(西格妮·韦弗 Sigourney Weaver 饰)是一名犯罪心理分析师,在多年的工作中,她以其非常出色的推理能力破获了诸多连环凶杀案,在为自己赢得声誉的同时,也遭到了来自恶徒的攻击,之后,受惊的海伦决定足不出户的蜗居在家中,工作和生活皆依靠强大的网络完成。就这样,很多年过去了。
  最近,几起相继发生的杀人案件让女警珍妮(霍利·亨特 Holly Hunter 饰)很是头疼,走投无路的她只得向经验丰富的海伦求救。种种线索表明此次的案件和海伦曾经办过的案件有着千丝万缕的联系,在珍妮的劝说下,海伦决定站出来找到事件的真相。而踌躇满志的海伦不知道的是,可怕的凶手已经来到了她的身边。
Video
ID                                       : 1
Format                                   : AVC
Format/Info                              : Advanced Video Codec
Format profile                           : [email protected]
Format settings, CABAC                   : Yes
Format settings, ReFrames                : 5 frames
Codec ID                                 : V_MPEG4/ISO/AVC
Duration                                 : 2h 3mn
Bit rate                                 : 8 660 Kbps
Width                                    : 1 920 pixels
Height                                   : 800 pixels
Display aspect ratio                     : 2.40:1
Frame rate mode                          : Constant
Frame rate                               : 23.976 fps
Color space                              : YUV
Chroma subsampling                       : 4:2:0
Bit depth                                : 8 bits
Scan type                                : Progressive
Bits/(Pixel*Frame)                       : 0.235
Stream size                              : 7.27 GiB (83%)
Writing library                          : x264 core 116 r2019 9cc407d
Encoding settings                        : cabac=1 / ref=5 / deblock=1:0:0 / analyse=0x3:0x113 / me=umh / subme=8 / psy=1 / psy_rd=1.00:0.00 / mixed_ref=1 / me_range=16 / chroma_me=1 / trellis=1 / 8x8dct=1 / cqm=0 / deadzone=21,11 / fast_pskip=1 / chroma_qp_offset=-2 / threads=12 / sliced_threads=0 / nr=0 / decimate=1 / interlaced=0 / bluray_compat=0 / constrained_intra=0 / bframes=3 / b_pyramid=2 / b_adapt=2 / b_bias=0 / direct=3 / weightb=1 / open_gop=0 / weightp=2 / keyint=240 / keyint_min=24 / scenecut=40 / intra_refresh=0 / rc_lookahead=50 / rc=2pass / mbtree=1 / bitrate=8660 / ratetol=1.0 / qcomp=0.60 / qpmin=0 / qpmax=69 / qpstep=4 / cplxblur=20.0 / qblur=0.5 / ip_ratio=1.40 / aq=1:1.00
Language                                 : English
Default                                  : Yes
Forced                                   : No
Audio
ID                                       : 2
Format                                   : DTS
Format/Info                              : Digital Theater Systems
Mode                                     : 16
Format settings, Endianness              : Big
Codec ID                                 : A_DTS
Duration                                 : 2h 3mn
Bit rate mode                            : Constant
Bit rate                                 : 1 509 Kbps
Channel(s)                               : 6 channels
Channel positions                        : Front: L C R, Side: L R, LFE
Sampling rate                            : 48.0 KHz
Bit depth                                : 24 bits
Compression mode                         : Lossy
Stream size                              : 1.30 GiB (15%)
Language                                 : English
Default                                  : Yes
Forced                                   : No
Text
ID                                       : 3
Format                                   : UTF-8
Codec ID                                 : S_TEXT/UTF8
Codec ID/Info                            : UTF-8 Plain Text
Language                                 : English
Default                                  : No
Forced                                   : No
Menu
00:00:00.000                             : en:00:00:00.000
00:03:51.398                             : en:00:03:51.398
00:07:12.098                             : en:00:07:12.098
00:10:25.500                             : en:00:10:25.500
00:12:41.844                             : en:00:12:41.844
00:13:53.249                             : en:00:13:53.249
00:19:19.950                             : en:00:19:19.950
00:20:50.249                             : en:00:20:50.249
00:25:26.692                             : en:00:25:26.692
00:31:40.107                             : en:00:31:40.107
00:33:41.478                             : en:00:33:41.478
00:36:21.262                             : en:00:36:21.262
00:38:16.252                             : en:00:38:16.252
00:42:17.493                             : en:00:42:17.493
00:47:07.825                             : en:00:47:07.825
00:48:41.085                             : en:00:48:41.085
00:51:32.840                             : en:00:51:32.840
00:53:50.894                             : en:00:53:50.894
00:58:07.067                             : en:00:58:07.067
01:00:21.868                             : en:01:00:21.868
01:06:42.248                             : en:01:06:42.248
01:09:16.402                             : en:01:09:16.402
01:11:31.662                             : en:01:11:31.662
01:14:42.770                             : en:01:14:42.770
01:16:41.555                             : en:01:16:41.555
01:21:54.952                             : en:01:21:54.952
01:25:31.793                             : en:01:25:31.793
01:28:22.547                             : en:01:28:22.547
01:32:50.607                             : en:01:32:50.607
01:36:12.141                             : en:01:36:12.141
01:38:13.596                             : en:01:38:13.596
01:39:26.210                             : en:01:39:26.210
01:42:36.317                             : en:01:42:36.317
01:47:33.155                             : en:01:47:33.155
01:49:34.151                             : en:01:49:34.151
01:51:02.656                             : en:01:51:02.656
01:52:25.822                             : en:01:52:25.822
01:53:35.392                             : en:01:53:35.392
01:55:30.215                             : en:01:55:30.215

精彩剧照


                                       

蓝光高清网提示您 点击下方附件名称 马上开始下载



温馨提示:
本站资源优先使用迅雷下载,迅雷会员下载,速度基本可以跑满宽带
如果遇到无资源或者版权问题无法下载,推荐使用115网盘离线下载(点击查看115网盘离线下载教程


  • 该资源需要您回复以后 刷新网页进行下载操作

  • 1、Copycat.1995.1080p.BluRay.x264.DTS-FGT.torrent 88KB 已下载 0 次

加入蓝光高清网VIP会员  无限制下载本站所有资源---点此加入

资源下载、资源播放、字幕使用、无法下载等常见问题---点这里

回复

使用道具 举报

懒得打字嘛,点击右侧快捷回复
高级模式
B Color Image Link Quote Code Smilies 上传

本版积分规则

关注0

粉丝0

帖子69282

发布主题
最新电影 论坛
广告位
联系我们
点击这里联系客服

服务时间:
周一到周日8:00-23:30

  • 打开微信扫一扫
    关注公众号

  • 手机QQ扫一扫
    添加客服

Archiver手机版蓝光高清网 ( 渝ICP备18006373号-2 )|网站地图

Powered by Discuz! X3.4  © 2001-2013 Comsenz Inc.