[惊悚] 大逃杀/圣战 Battle.Royale.2000.DC.JAPANESE.1080p.BluRay.x264.DTS-FGT 10.51GB

[复制链接]
蓝鸟VIP会员 永久VIP 发表于 2019-8-21 21:16:56 | 显示全部楼层 |阅读模式 打印 上一主题 下一主题

马上注册,轻松下载,海量资源,让你轻松玩转社区。

您需要 登录 才可以下载或查看,没有帐号?立即注册

x


◎译  名 大逃杀/圣战
◎片  名 バトル?ロワイアル
◎年  代 2000
◎国  家 日本
◎类  别 动作/惊悚
◎语  言 日语
◎上映日期 2000-12-16(日本)/2001-04-07(导演剪辑版)
◎IMDb评分  7.8/10 from 126,944 users
◎IMDb链接  http://www.imdb.com/title/tt0266308/
◎豆瓣评分 8.1/10 from 108,715 users
◎豆瓣链接 http://movie.douban.com/subject/1292444/
◎片  长 114分钟/122分钟(导演剪辑版)
◎导  演 深作欣二
◎主  演 北野武
      藤原龙也
      山本太郎
      安藤政信
      前田亚季
      栗山千明
      柴崎幸
      冢本高史
◎简  介
  为了培养出忠实效忠于成人、在逆境中坚忍不拔的青少年一代,日本政府出台《BR》法案。每年都从全国学校随机抽出一个班级的同学,前往荒岛进行生存极限挑战——老师发给学生地图、粮食和各式武器,令他们自相残杀,直到存活下来的最后一个,才能离开荒岛。接下来,残酷的游戏规则和令人绝望的生存条件,使班级里的年轻人开始了相互杀戮。善良或者凶残,主动出击或者被动防守, 同学们开始了各自的计划,人性的丑恶在血腥的死亡中暴露无遗。
  大逃杀的游戏在荒岛上壮烈上演。究竟学生们的宿命如何,谁才是最后的存活者。
Video
ID                                       : 1
Format                                   : AVC
Format/Info                              : Advanced Video Codec
Format profile                           : [email protected]
Format settings, CABAC                   : Yes
Format settings, ReFrames                : 4 frames
Codec ID                                 : V_MPEG4/ISO/AVC
Duration                                 : 2h 1mn
Bit rate                                 : 10.8 Mbps
Width                                    : 1 920 pixels
Height                                   : 1 080 pixels
Display aspect ratio                     : 16:9
Frame rate mode                          : Constant
Frame rate                               : 23.976 fps
Color space                              : YUV
Chroma subsampling                       : 4:2:0
Bit depth                                : 8 bits
Scan type                                : Progressive
Bits/(Pixel*Frame)                       : 0.218
Stream size                              : 9.01 GiB (86%)
Writing library                          : x264 core 110 r1804 e89c4cf
Encoding settings                        : cabac=1 / ref=4 / deblock=1:-3:-3 / analyse=0x3:0x113 / me=umh / subme=9 / psy=1 / psy_rd=1.10:0.15 / mixed_ref=1 / me_range=48 / chroma_me=1 / trellis=2 / 8x8dct=1 / cqm=0 / deadzone=21,11 / fast_pskip=0 / chroma_qp_offset=-2 / threads=12 / sliced_threads=0 / nr=0 / decimate=1 / interlaced=0 / constrained_intra=0 / bframes=6 / b_pyramid=2 / b_adapt=2 / b_bias=0 / direct=3 / weightb=1 / open_gop=0 / weightp=2 / keyint=250 / keyint_min=23 / scenecut=40 / intra_refresh=0 / rc_lookahead=40 / rc=2pass / mbtree=0 / bitrate=10828 / ratetol=1.0 / qcomp=0.70 / qpmin=0 / qpmax=51 / qpstep=4 / cplxblur=20.0 / qblur=0.5 / vbv_maxrate=45000 / vbv_bufsize=40000 / ip_ratio=1.40 / pb_ratio=1.30 / aq=1:0.90 / nal_hrd=none
Language                                 : Japanese
Default                                  : Yes
Forced                                   : No
Audio
ID                                       : 2
Format                                   : DTS
Format/Info                              : Digital Theater Systems
Mode                                     : 16
Format settings, Endianness              : Big
Codec ID                                 : A_DTS
Duration                                 : 2h 1mn
Bit rate mode                            : Constant
Bit rate                                 : 1 509 Kbps
Channel(s)                               : 6 channels
Channel positions                        : Front: L C R, Side: L R, LFE
Sampling rate                            : 48.0 KHz
Bit depth                                : 24 bits
Compression mode                         : Lossy
Delay relative to video                  : 11ms
Stream size                              : 1.29 GiB (12%)
Language                                 : Japanese
Default                                  : Yes
Forced                                   : No
Text
ID                                       : 3
Format                                   : UTF-8
Codec ID                                 : S_TEXT/UTF8
Codec ID/Info                            : UTF-8 Plain Text
Language                                 : English
Default                                  : Yes
Forced                                   : No

精彩剧照


                                       

蓝光高清网提示您 点击下方附件名称 马上开始下载



温馨提示:
本站资源优先使用迅雷下载,迅雷会员下载,速度基本可以跑满宽带
如果遇到无资源或者版权问题无法下载,推荐使用115网盘离线下载(点击查看115网盘离线下载教程


  • 该资源需要您回复以后 刷新网页进行下载操作

  • 1、Battle.Royale.2000.DC.JAPANESE.1080p.BluRay.x264.DTS-FGT.torrent 53KB 已下载 0 次

加入蓝光高清网VIP会员  无限制下载本站所有资源---点此加入

资源下载、资源播放、字幕使用、无法下载等常见问题---点这里

回复

使用道具 举报

精彩评论1

zjnhgsj 发表于 2019-8-21 21:22:19 | 显示全部楼层
谢谢  下载了  3Q

加入蓝光高清网VIP会员  无限制下载本站所有资源---点此加入

资源下载、资源播放、字幕使用、无法下载等常见问题---点这里

回复

使用道具 举报

懒得打字嘛,点击右侧快捷回复
高级模式
B Color Image Link Quote Code Smilies 上传

本版积分规则

关注0

粉丝0

帖子66703

发布主题
最新电影 论坛
广告位
联系我们
点击这里联系客服

服务时间:
周一到周日8:00-23:30

  • 打开微信扫一扫
    关注公众号

  • 手机QQ扫一扫
    添加客服

Archiver手机版蓝光高清网 ( 渝ICP备18006373号-2 )|网站地图

Powered by Discuz! X3.4  © 2001-2013 Comsenz Inc.