[惊悚] 夺命手术/索命麻醉/离魂惊杀/清醒 Awake.2007.1080p.BluRay.x264.DTS-FGT 9.2GB

[复制链接]
蓝鸟VIP会员 永久VIP 发表于 2019-8-21 21:17:43 | 显示全部楼层 |阅读模式 打印 上一主题 下一主题

马上注册,轻松下载,海量资源,让你轻松玩转社区。

您需要 登录 才可以下载或查看,没有帐号?立即注册

x


◎译  名 夺命手术/索命麻醉/离魂惊杀/清醒
◎片  名 Awake
◎年  代 2007
◎国  家 美国
◎类  别 犯罪/惊悚
◎语  言 英语/日语
◎上映日期 2007-11-30
◎IMDb评分  6.5/10 from 59,088 users
◎IMDb链接  http://www.imdb.com/title/tt0211933/
◎豆瓣评分 7.2/10 from 13,374 users
◎豆瓣链接 http://movie.douban.com/subject/1741703/
◎片  长 84 分钟
◎导  演 Joby Harold
◎主  演 海登·克里斯滕森 Hayden Christensen
      杰西卡·阿尔芭 Jessica Alba
      泰伦斯·霍华德 Terrence Howard
      莉娜·奥琳 Lena Olin
◎简  介
  年轻的克莱(海登?克里斯滕森 饰)拥有数十亿的身家,但父亲的逝世对他的影响太大,他也讨厌母亲莉莉丝(莉娜?奥琳 饰)变得爱管制他。克莱也一直回避让母亲知道他与母亲助手萨曼莎(杰西卡?阿尔芭 饰)恋爱这件事。越是反对,越是反抗,最终他还是与心爱的萨曼莎结婚了。
  克莱有严重的心脏病,心脏移植才能活命,无奈他的血型鲜有,待终于找到了适合的心脏时,他拒绝让世界级医生给他做手术,而是选择了自己的好朋友医生杰克(特伦斯?霍德华 饰),一个医疗事故缠身的医生。
  手术准备开始,克莱以为自己已被麻醉,令他恐慌的是自己的意识竟如此清晰,甚至能感受到身体被剖开,只是身体完全不能动弹。他听到了医生们的谈话,竟然听到了杰克与萨曼莎之间的阴谋,伤心欲绝的他想着自己将要离世了,却在这时候看到了自己的母亲,母亲告诉他不能就此死去……
Video
ID                                       : 1
Format                                   : AVC
Format/Info                              : Advanced Video Codec
Format profile                           : [email protected]
Format settings, CABAC                   : Yes
Format settings, ReFrames                : 4 frames
Codec ID                                 : V_MPEG4/ISO/AVC
Duration                                 : 1h 24mn
Bit rate                                 : 13.8 Mbps
Width                                    : 1 920 pixels
Height                                   : 808 pixels
Display aspect ratio                     : 2.40:1
Frame rate mode                          : Constant
Frame rate                               : 23.976 fps
Color space                              : YUV
Chroma subsampling                       : 4:2:0
Bit depth                                : 8 bits
Scan type                                : Progressive
Bits/(Pixel*Frame)                       : 0.372
Stream size                              : 8.13 GiB (88%)
Writing library                          : x264 core 65 r1051M 549cc55
Encoding settings                        : cabac=1 / ref=4 / deblock=1:-3:-3 / analyse=0x3:0x113 / me=umh / subme=9 / psy_rd=1.0:0.0 / mixed_ref=1 / me_range=24 / chroma_me=1 / trellis=0 / 8x8dct=1 / cqm=0 / deadzone=4,2 / chroma_qp_offset=-2 / threads=6 / nr=0 / decimate=0 / mbaff=0 / bframes=3 / b_pyramid=1 / b_adapt=2 / b_bias=0 / direct=3 / wpredb=1 / keyint=250 / keyint_min=25 / scenecut=40(pre) / rc=crf / crf=21.0 / qcomp=0.60 / qpmin=10 / qpmax=51 / qpstep=4 / vbv_maxrate=38000 / vbv_bufsize=30000 / ip_ratio=1.40 / pb_ratio=1.30 / aq=1:0.80
Language                                 : English
Default                                  : Yes
Forced                                   : No
Audio
ID                                       : 2
Format                                   : DTS
Format/Info                              : Digital Theater Systems
Mode                                     : 16
Format settings, Endianness              : Big
Codec ID                                 : A_DTS
Duration                                 : 1h 24mn
Bit rate mode                            : Constant
Bit rate                                 : 1 509 Kbps
Channel(s)                               : 6 channels
Channel positions                        : Front: L C R, Side: L R, LFE
Sampling rate                            : 48.0 KHz
Bit depth                                : 24 bits
Compression mode                         : Lossy
Stream size                              : 908 MiB (10%)
Language                                 : English
Default                                  : Yes
Forced                                   : No

精彩剧照


                                       

蓝光高清网提示您 点击下方附件名称 马上开始下载



温馨提示:
本站资源优先使用迅雷下载,迅雷会员下载,速度基本可以跑满宽带
如果遇到无资源或者版权问题无法下载,推荐使用115网盘离线下载(点击查看115网盘离线下载教程


  • 该资源需要您回复以后 刷新网页进行下载操作

  • 1、Awake.2007.1080p.BluRay.x264.DTS-FGT.torrent 93KB 已下载 0 次

加入蓝光高清网VIP会员  无限制下载本站所有资源---点此加入

资源下载、资源播放、字幕使用、无法下载等常见问题---点这里

回复

使用道具 举报

懒得打字嘛,点击右侧快捷回复
高级模式
B Color Image Link Quote Code Smilies 上传

本版积分规则

关注0

粉丝0

帖子66561

发布主题
最新电影 论坛
广告位
联系我们
点击这里联系客服

服务时间:
周一到周日8:00-23:30

  • 打开微信扫一扫
    关注公众号

  • 手机QQ扫一扫
    添加客服

Archiver手机版蓝光高清网 ( 渝ICP备18006373号-2 )|网站地图

Powered by Discuz! X3.4  © 2001-2013 Comsenz Inc.