[惊悚] 惊天大阴谋/总统班底 All.The.Presidents.Men.1976.1080p.BluRay.x264.DTS-FGT 11.18GB

[复制链接]
蓝鸟VIP会员 永久VIP 发表于 2019-8-21 21:18:32 | 显示全部楼层 |阅读模式 打印 上一主题 下一主题

马上注册,轻松下载,海量资源,让你轻松玩转社区。

您需要 登录 才可以下载或查看,没有帐号?立即注册

x


◎译  名 惊天大阴谋/总统班底/水门事件/大阴谋
◎片  名 All the President s Men
◎年  代 1976
◎国  家 美国
◎类  别 剧情/历史/惊悚
◎语  言 英语/西班牙语
◎上映日期 1976-04-09
◎IMDb评分  8.0/10 from 64,892 users
◎IMDb链接  http://www.imdb.com/title/tt0074119/
◎豆瓣评分 7.9/10 from 2,865 users
◎豆瓣链接 http://movie.douban.com/subject/1293715/
◎片  长 138 分钟/Spain: 125 分钟(TV version)
◎导  演 艾伦·J·帕库拉 Alan J. Pakula
◎主  演 达斯汀·霍夫曼 Dustin Hoffman
      罗伯特·雷德福 Robert Redford
      杰克·瓦尔登 Jack Warden
      马丁·鲍尔萨姆 Martin Balsam
      哈尔·霍尔布鲁克 Hal Holbrook
      F·默里·亚伯拉罕 F. Murray Abraham
      简·亚历山大 Jane Alexander
      杰森·罗巴兹 Jason Robards
◎简  介
  根据水门事件揭发人Carl Bernstein和Bob Woodward所写自传改编的电影。二人是《华盛顿邮报》的记者,在水门事件里,他们历尽艰辛揭开政治黑幕,人物和事件一同成为美国一段家喻户晓的历史。故事由五名盗贼开始,他们潜入水门大度行窃。本来是一桩不甚重大的刑事案件,却在Bernstein(达斯汀·霍夫曼Dustin Hoffman 饰)和Woodward(罗伯特·雷德福Robert Redford  饰)的追查下,最终撕开了一条大裂缝,矛头直指总统尼克松。从1972年到1974年,从尼克松竞选总统到尼克松连任上台,华盛顿邮报受到的压力越来越大,甚至被威胁。主编本·布莱德利站在了新闻自由和相信自己记者的这边,Bernstein和Woodward得以继续追寻事件真相,得到了重要线人“深喉”的帮助,经历了难以想象的曲折艰辛后,水门事件最终导致尼克松总统下台。
◎获奖情况
  第49届奥斯卡金像奖 (1977)
  最佳影片(提名) Walter Coblenz
  最佳导演(提名) 艾伦·J·帕库拉
  最佳男配角 杰森·罗巴兹
  最佳女配角(提名) 简·亚历山大
  最佳改编剧本 威廉姆·高德曼
  最佳剪辑(提名) Robert L. Wolfe
  最佳音响 Les Fresholtz / Arthur Piantadosi / James E. Webb / Rick Alexander
  最佳美术指导 George Gaines / George Jenkins
Video
ID                                       : 1
Format                                   : AVC
Format/Info                              : Advanced Video Codec
Format profile                           : [email protected]
Format settings, CABAC                   : Yes
Format settings, ReFrames                : 4 frames
Codec ID                                 : V_MPEG4/ISO/AVC
Duration                                 : 2h 18mn
Bit rate                                 : 10.6 Mbps
Width                                    : 1 920 pixels
Height                                   : 1 080 pixels
Display aspect ratio                     : 16:9
Frame rate mode                          : Constant
Frame rate                               : 23.976 fps
Color space                              : YUV
Chroma subsampling                       : 4:2:0
Bit depth                                : 8 bits
Scan type                                : Progressive
Bits/(Pixel*Frame)                       : 0.213
Stream size                              : 10.0 GiB (90%)
Writing library                          : x264 core 107 r1772 c9dad9e
Encoding settings                        : cabac=1 / ref=4 / deblock=1:-3:-3 / analyse=0x3:0x113 / me=umh / subme=9 / psy=1 / psy_rd=1.10:0.15 / mixed_ref=1 / me_range=48 / chroma_me=1 / trellis=2 / 8x8dct=1 / cqm=0 / deadzone=21,11 / fast_pskip=0 / chroma_qp_offset=-2 / threads=12 / sliced_threads=0 / nr=0 / decimate=1 / interlaced=0 / constrained_intra=0 / bframes=6 / b_pyramid=2 / b_adapt=2 / b_bias=0 / direct=3 / weightb=1 / open_gop=0 / weightp=2 / keyint=250 / keyint_min=23 / scenecut=40 / intra_refresh=0 / rc_lookahead=60 / rc=2pass / mbtree=1 / bitrate=10611 / ratetol=1.0 / qcomp=0.70 / qpmin=10 / qpmax=51 / qpstep=4 / cplxblur=20.0 / qblur=0.5 / vbv_maxrate=45000 / vbv_bufsize=40000 / ip_ratio=1.40 / aq=1:0.90 / nal_hrd=none
Language                                 : English
Default                                  : Yes
Forced                                   : No
Audio #1
ID                                       : 2
Format                                   : DTS
Format/Info                              : Digital Theater Systems
Mode                                     : 16
Format settings, Endianness              : Big
Codec ID                                 : A_DTS
Duration                                 : 2h 18mn
Bit rate mode                            : Constant
Bit rate                                 : 768 Kbps
Channel(s)                               : 2 channels
Channel positions                        : Front: L R
Sampling rate                            : 48.0 KHz
Bit depth                                : 24 bits
Compression mode                         : Lossy
Stream size                              : 760 MiB (7%)
Language                                 : English
Default                                  : Yes
Forced                                   : No
Audio #2
ID                                       : 3
Format                                   : AC-3
Format/Info                              : Audio Coding 3
Mode extension                           : CM (complete main)
Format settings, Endianness              : Big
Codec ID                                 : A_AC3
Duration                                 : 2h 18mn
Bit rate mode                            : Constant
Bit rate                                 : 192 Kbps
Channel(s)                               : 1 channel
Channel positions                        : Front: C
Sampling rate                            : 48.0 KHz
Bit depth                                : 16 bits
Compression mode                         : Lossy
Stream size                              : 190 MiB (2%)
Title                                    : Commentary
Language                                 : English
Default                                  : No
Forced                                   : No
Text
ID                                       : 4
Format                                   : UTF-8
Codec ID                                 : S_TEXT/UTF8
Codec ID/Info                            : UTF-8 Plain Text
Language                                 : English
Default                                  : No
Forced                                   : No
Menu
00:00:00.000                             : en:The President Arrives
00:02:12.132                             : en:Burglary Discovered
00:06:48.616                             : enost Night Shift
00:08:06.736                             : en:The Arrangement
00:12:18.988                             : en:H.H. at W.H.
00:18:06.794                             : en:Whose Story Is It?
00:20:04.536                             : en:Editorial Help
00:23:26.154                             : en:Hunt\ s Taste in Books
00:30:32.622                             : en:Harder Information Needed
00:33:29.966                             : eneep Throat
00:40:59.790                             : enown to Dade County
00:46:50.265                             : en:Money Trail
00:54:17.629                             : en:Budget Meeting
00:58:32.467                             : en:No Luck? Get Some.
01:00:57.528                             : en:Committee to Relfect
01:07:57.948                             : en:The Way They\ re Not Talking
01:13:48.298                             : en:The Bookkeeper
01:21:20.625                             : en:Alphabet Soup
01:27:31.246                             : en:Slush-Fund Overseers
01:31:25.188                             : en:\ Just Be Sure You\ re Right\
01:32:22.203                             : en:Mitchell Responds
01:34:05.723                             : en:Matter of Trust
01:38:34.116                             : enlot Before Watergate: Segretti
01:43:45.052                             : en:\ of Course Mitchell Knew\
01:49:00.158                             : eneputy Director Was Indiscreet
01:53:30.428                             : en:Nailing the Fifth Man
02:00:53.537                             : en:Attacks From High Places
02:05:30.397                             : en:\ Your Lives Are in Danger\
02:10:55.556                             : en:What\ s Riding on This
02:12:05.917                             : en:Inauguration Day
02:15:09.768                             : en:Across the Teletype
02:16:38.190                             : en:End Credits

精彩剧照


                                       

蓝光高清网提示您 点击下方附件名称 马上开始下载



温馨提示:
本站资源优先使用迅雷下载,迅雷会员下载,速度基本可以跑满宽带
如果遇到无资源或者版权问题无法下载,推荐使用115网盘离线下载(点击查看115网盘离线下载教程


  • 该资源需要您回复以后 刷新网页进行下载操作

  • 1、All.The.Presidents.Men.1976.1080p.BluRay.x264.DTS-FGT.torrent 57KB 已下载 0 次

加入蓝光高清网VIP会员  无限制下载本站所有资源---点此加入

资源下载、资源播放、字幕使用、无法下载等常见问题---点这里

回复

使用道具 举报

懒得打字嘛,点击右侧快捷回复
高级模式
B Color Image Link Quote Code Smilies 上传

本版积分规则

关注0

粉丝0

帖子66311

发布主题
最新电影 论坛
广告位
联系我们
点击这里联系客服

服务时间:
周一到周日8:00-23:30

  • 打开微信扫一扫
    关注公众号

  • 手机QQ扫一扫
    添加客服

Archiver手机版蓝光高清网 ( 渝ICP备18006373号-2 )|网站地图

Powered by Discuz! X3.4  © 2001-2013 Comsenz Inc.