[奇幻] 尼斯湖怪:深水传说/尼斯湖水怪 The.Water.Horse.2007.1080p.BluRay.x264.DTS-FGT 10.1GB

[复制链接]
蓝鸟VIP会员 永久VIP 发表于 2019-8-21 21:20:58 | 显示全部楼层 |阅读模式 打印 上一主题 下一主题

马上注册,轻松下载,海量资源,让你轻松玩转社区。

您需要 登录 才可以下载或查看,没有帐号?立即注册

x


◎译  名 尼斯湖怪:深水传说/尼斯湖水怪/水马:深水传奇
◎片  名 The Water Horse
◎年  代 2007
◎国  家 美国/英国
◎类  别 冒险/家庭/奇幻
◎语  言 英语
◎上映日期 2007-12-25(美国)
◎IMDb评分  6.5/10 from 29,050 users
◎IMDb链接  http://www.imdb.com/title/tt0760329/
◎豆瓣评分 6.7/10 from 24,763 users
◎豆瓣链接 http://movie.douban.com/subject/1866424/
◎片  长 112 分钟
◎导  演 杰·拉塞尔 Jay Russell
◎主  演 亚历克斯·伊特尔 Alex Etel
      艾米丽·沃森 Emily Watson
      本·卓别林 Ben Chaplin
      布莱恩·考克斯 Brian Cox
      Nathan Christopher Haase
◎简  介
  因为战争的缘故,安格斯?麦克莫洛(亚历克斯?以特尔 饰)的父亲远征战场。他与母亲、姐姐一起居住,他与父亲感情深厚,每天都期待着父亲能够回家团聚。
  安格斯喜欢浩瀚的大海,却畏惧下水游泳。一天他在海边发现了奇怪的石头。原来这是颗蛋,当一条奇怪的爬行动物出现在安格斯的面前时,他惊讶极了。他为这只小动物改名“克鲁索”,克鲁索即使淘气,却十分听从安格斯的话。安格斯把克鲁索当作自己的朋友,精心照顾,但克鲁索越长越大,他害怕母亲要他放弃克鲁索。
  这时他们的大房子被军队征用做栖身之地,安格斯便要更加小心了。但还是无法避免的因为克鲁索的淘气发生了许多荒唐事。幸好,安格斯有男佣刘易斯的帮忙,他们把越长越大的克鲁索放进了尼斯湖中。
  安格斯时时跑去与克鲁索玩耍,首次在克鲁索的带领下潜入了水底。但生活存在着暗涌,当地人开始发现了克鲁索的存在,想借此成名。就连住在安格斯家中的军队,也误以为巨大的克鲁索是敌方的潜艇,对可怜的它发出攻击,安格斯拼命营救。
Video
ID                                       : 1
Format                                   : AVC
Format/Info                              : Advanced Video Codec
Format profile                           : [email protected]
Format settings, CABAC                   : Yes
Format settings, ReFrames                : 5 frames
Codec ID                                 : V_MPEG4/ISO/AVC
Duration                                 : 1h 51mn
Bit rate                                 : 11.4 Mbps
Width                                    : 1 920 pixels
Height                                   : 800 pixels
Display aspect ratio                     : 2.40:1
Frame rate mode                          : Constant
Frame rate                               : 23.976 fps
Color space                              : YUV
Chroma subsampling                       : 4:2:0
Bit depth                                : 8 bits
Scan type                                : Progressive
Bits/(Pixel*Frame)                       : 0.310
Stream size                              : 8.72 GiB (86%)
Writing library                          : x264 core 58
Encoding settings                        : cabac=1 / ref=5 / deblock=0:0:0 / analyse=0x3:0x113 / me=umh / subme=7 / me-prepass=1 / brdo=1 / mixed_ref=1 / me_range=24 / chroma_me=1 / trellis=0 / 8x8dct=1 / cqm=2 / deadzone=9,6 / chroma_qp_offset=0 / threads=6 / nr=0 / decimate=1 / mbaff=0 / bframes=8 / b_pyramid=1 / b_adapt=1 / b_bias=0 / direct=3 / wpredb=1 / bime=1 / keyint=250 / keyint_min=25 / scenecut=40(pre) / rc=2pass / bitrate=11423 / ratetol=1.0 / rceq=\ blurCplx^(1-qComp)\  / qcomp=1.00 / qpmin=10 / qpmax=51 / qpstep=4 / cplxblur=20.0 / qblur=0.5 / ip_ratio=1.40 / pb_ratio=1.30 / aq=1:0.5:13.0
Language                                 : English
Default                                  : Yes
Forced                                   : No
Audio
ID                                       : 2
Format                                   : DTS
Format/Info                              : Digital Theater Systems
Mode                                     : 16
Format settings, Endianness              : Big
Codec ID                                 : A_DTS
Duration                                 : 1h 51mn
Bit rate mode                            : Constant
Bit rate                                 : 1 510 Kbps
Channel(s)                               : 6 channels
Channel positions                        : Front: L C R, Side: L R, LFE
Sampling rate                            : 48.0 KHz
Bit depth                                : 24 bits
Compression mode                         : Lossy
Stream size                              : 1.18 GiB (12%)
Language                                 : English
Default                                  : Yes
Forced                                   : No

精彩剧照


                                       

蓝光高清网提示您 点击下方附件名称 马上开始下载



温馨提示:
本站资源优先使用迅雷下载,迅雷会员下载,速度基本可以跑满宽带
如果遇到无资源或者版权问题无法下载,推荐使用115网盘离线下载(点击查看115网盘离线下载教程


  • 该资源需要您回复以后 刷新网页进行下载操作

  • 1、The.Water.Horse.2007.1080p.BluRay.x264.DTS-FGT.torrent 51KB 已下载 0 次

加入蓝光高清网VIP会员  无限制下载本站所有资源---点此加入

资源下载、资源播放、字幕使用、无法下载等常见问题---点这里

回复

使用道具 举报

懒得打字嘛,点击右侧快捷回复
高级模式
B Color Image Link Quote Code Smilies 上传

本版积分规则

关注0

粉丝0

帖子66311

发布主题
最新电影 论坛
广告位
联系我们
点击这里联系客服

服务时间:
周一到周日8:00-23:30

  • 打开微信扫一扫
    关注公众号

  • 手机QQ扫一扫
    添加客服

Archiver手机版蓝光高清网 ( 渝ICP备18006373号-2 )|网站地图

Powered by Discuz! X3.4  © 2001-2013 Comsenz Inc.