[恐怖] 大灾变的预示/世界末日 Apocalyptic.2014.1080p.BluRay.x264.DTS-RARBG 7.11GB

[复制链接]
蓝鸟VIP会员 永久VIP 发表于 2019-8-21 21:24:16 | 显示全部楼层 |阅读模式 打印 上一主题 下一主题

马上注册,轻松下载,海量资源,让你轻松玩转社区。

您需要 登录 才可以下载或查看,没有帐号?立即注册

x



◎译  名 大灾变的预示/世界末日
◎片  名 apocalyptic
◎年  代 2014
◎国  家 澳大利亚
◎类  别 惊悚/恐怖
◎IMDb评分  4.7/10 from 384 users
◎IMDb链接  http://www.imdb.com/title/tt3237154/
◎片  长 112 分钟
◎导  演 Glenn Triggs
◎主  演 Jane Elizabeth Barry ...Jodie Black
      David Macrae ...Michael Godson
      Geoff Pinfield ...Kevin Horner
      Tom McCathie ...Presley
      Rachel Torrance ...Samara
      Ashleigh Gregory ...Amy
      Zoe Imms ...Gray
      Janice Paull ...Ruth
◎简  介
  Journalist Jodie Black and her cameraman Kevin Horner head deep into unclaimed forest land in a bid to uncover the truth surrounding a bizarre doomsday cult| the
Bytherainians . What they discover is shocking beyond their wildest imaginings. Part BLAIR WITCH part WICKER MAN| APOCALYPTIC is one of the creepiest and
unforgettable horror experiences in years.
Video
ID                                       : 1
Format                                   : AVC
Format/Info                              : Advanced Video Codec
Format profile                           : [email protected]
Format settings, CABAC                   : Yes
Format settings, ReFrames                : 4 frames
Codec ID                                 : V_MPEG4/ISO/AVC
Duration                                 : 1h 21mn
Bit rate                                 : 10.7 Mbps
Nominal bit rate                         : 11.5 Mbps
Width                                    : 1 920 pixels
Height                                   : 1 080 pixels
Display aspect ratio                     : 16:9
Frame rate mode                          : Constant
Frame rate                               : 23.976 fps
Color space                              : YUV
Chroma subsampling                       : 4:2:0
Bit depth                                : 8 bits
Scan type                                : Progressive
Bits/(Pixel*Frame)                       : 0.215
Stream size                              : 6.11 GiB (86%)
Title                                    : Apocalyptic.2014.1080p.BluRay.x264.DTS-RARBG
Writing library                          : x264 core 144 r96 40bb568
Encoding settings                        : cabac=1 / ref=4 / deblock=1:-2:-2 / analyse=0x3:0x113 / me=umh / subme=7 / psy=1 / psy_rd=1.00:0.15 / mixed_ref=1 / me_range=16 / chroma_me=1 / trellis=1 / 8x8dct=1 / cqm=0 / deadzone=21,11 / fast_pskip=1 / chroma_qp_offset=-3 / threads=12 / lookahead_threads=3 / sliced_threads=0 / nr=0 / decimate=1 / interlaced=0 / bluray_compat=0 / constrained_intra=0 / bframes=3 / b_pyramid=2 / b_adapt=2 / b_bias=0 / direct=3 / weightb=1 / open_gop=0 / weightp=2 / keyint=250 / keyint_min=25 / scenecut=40 / intra_refresh=0 / rc_lookahead=50 / rc=abr / mbtree=1 / bitrate=11500 / ratetol=1.0 / qcomp=0.60 / qpmin=0 / qpmax=69 / qpstep=4 / vbv_maxrate=31250 / vbv_bufsize=31250 / nal_hrd=none / filler=0 / ip_ratio=1.40 / aq=1:1.00
Language                                 : English
Default                                  : Yes
Forced                                   : No
Audio
ID                                       : 2
Format                                   : DTS
Format/Info                              : Digital Theater Systems
Mode                                     : 16
Format settings, Endianness              : Big
Codec ID                                 : A_DTS
Duration                                 : 1h 21mn
Bit rate mode                            : Constant
Bit rate                                 : 1 509 Kbps
Channel(s)                               : 6 channels
Channel positions                        : Front: L C R, Side: L R, LFE
Sampling rate                            : 48.0 KHz
Bit depth                                : 24 bits
Compression mode                         : Lossy
Stream size                              : 882 MiB (12%)
Title                                    : Apocalyptic.2014.1080p.BluRay.x264.DTS-RARBG
Language                                 : English
Default                                  : Yes
Forced                                   : No
Menu
00:00:00.000                             : en:Chapter 01
00:08:29.592                             : en:Chapter 02
00:16:30.155                             : en:Chapter 03
00:20:12.419                             : en:Chapter 04
00:24:32.596                             : en:Chapter 05
00:30:02.634                             : en:Chapter 06
00:37:38.673                             : en:Chapter 07
00:45:24.054                             : en:Chapter 08
00:49:50.445                             : en:Chapter 09
00:58:57.492                             : en:Chapter 10
01:04:40.418                             : en:Chapter 11
01:06:27.942                             : en:Chapter 12
01:17:47.871                             : en:Chapter 13


精彩剧照


                                       

蓝光高清网提示您 点击下方附件名称 马上开始下载



温馨提示:
本站资源优先使用迅雷下载,迅雷会员下载,速度基本可以跑满宽带
如果遇到无资源或者版权问题无法下载,推荐使用115网盘离线下载(点击查看115网盘离线下载教程


  • 该资源需要您回复以后 刷新网页进行下载操作

  • 1、Apocalyptic.2014.1080p.BluRay.x264.DTS-RARBG.torrent 72KB 已下载 0 次

加入蓝光高清网VIP会员  无限制下载本站所有资源---点此加入

资源下载、资源播放、字幕使用、无法下载等常见问题---点这里

回复

使用道具 举报

懒得打字嘛,点击右侧快捷回复
高级模式
B Color Image Link Quote Code Smilies 上传

本版积分规则

关注0

粉丝0

帖子66703

发布主题
最新电影 论坛
广告位
联系我们
点击这里联系客服

服务时间:
周一到周日8:00-23:30

  • 打开微信扫一扫
    关注公众号

  • 手机QQ扫一扫
    添加客服

Archiver手机版蓝光高清网 ( 渝ICP备18006373号-2 )|网站地图

Powered by Discuz! X3.4  © 2001-2013 Comsenz Inc.