开通会员
全站资源畅享下载
4k原盘抢先下载
免高清币下载
会员用户组特权
开通会员
上传
收藏
首页
开启左侧

[4K高清美剧] 吃货天下指南 4k Eaters.Guide.to.the.World.S01.2160p.美剧下载—22.03 GB

[复制链接]
蓝鸟 发表于 2021-1-8 11:48:20 | 显示全部楼层 |阅读模式 打印 上一主题 下一主题

吃货天下指南(上映日期:2020)4K(3840x2160)

简介  美国知名主持人玛娅·鲁道夫将以旁白身份带领观众探索世界上不同的美食,例如来自太平洋西北地区﹑卡萨布兰卡﹑蒂华纳及哥斯达黎加等地方
导演
主演玛娅·鲁道夫
类型真人秀 
地区美国
声道5.1声道
编码其他DD
状态第一季(完结)
评分豆瓣7.2分
 

加入蓝光高清网,轻松下载最新4k资源

您需要 登录 才可以下载或查看,没有帐号?立即注册

x


影片参数
吃货天下指南4k Eaters.Guide.to.the.World.S01.2160p.HULU.WEBRip.DDP5.1.x265.美剧信息
Video
ID : 1
Format : HEVC
Format/Info : High Efficiency Video Coding
Format profile : Main 10@L5.1@Main
Codec ID : V_MPEGH/ISO/HEVC
Duration : 31 min 14 s
Bit rate : 15.9 Mb/s
Width : 3 840 pixels
Height : 2 160 pixels
Display aspect ratio : 16:9
Frame rate mode : Constant
Frame rate : 23.976 (24000/1001) FPS
Color space : YUV
Chroma subsampling : 4:2:0
Bit depth : 10 bits
Bits/(Pixel*Frame) : 0.080
Stream size : 3.47 GiB (98%)
Default : Yes
Forced : No


Audio
ID : 2
Format : E-AC-3
Format/Info : Enhanced AC-3
Commercial name : Dolby Digital Plus
Codec ID : A_EAC3
Duration : 31 min 15 s
Bit rate mode : Constant
Bit rate : 256 kb/s
Channel(s) : 6 channels
Channel layout : L R C LFE Ls Rs
Sampling rate : 48.0 kHz
Frame rate : 31.250 FPS (1536 SPF)
Compression mode : Lossy
Stream size : 57.2 MiB (2%)
Language : English
Service kind : Complete Main
Default : Yes
Forced : No


Text #1
ID : 3
Format : UTF-8
Codec ID : S_TEXT/UTF8
Codec ID/Info : UTF-8 Plain Text
Duration : 31 min 0 s
Bit rate : 96 b/s
Count of elements : 500
Stream size : 21.8 KiB (0%)
Language : English
Default : No
Forced : No


Text #2
ID : 4
Format : UTF-8
Codec ID : S_TEXT/UTF8
Codec ID/Info : UTF-8 Plain Text
Duration : 31 min 2 s
Bit rate : 114 b/s
Count of elements : 632
Stream size : 26.0 KiB (0%)
Language : Spanish
Default : No
Forced : No


蓝光高清网提示您  点击下方附件名称  马上开始下载


吃货天下指南4k Eaters.Guide.to.the.World.S01.2160p.HULU.WEBRip.DDP5.1.x265.美剧下载

吃货天下指南4k Eaters.Guide.to.the.World.S01.2160p.HULU.WEBRip.DDP5.1.x265.【22.03 GB】

吃货天下指南 Eaters.Guide.to.the.World.S01.2160p.HULU.WEBRip.DDP5.1.x265-.torrent (文件大小:56.51 KB)


加入蓝光高清网VIP会员  无限制下载本站所有资源---点这里

资源下载、资源播放、字幕使用、无法下载等常见问题---点这里
回复

使用道具 举报

 

精彩评论7

正序浏览
gdlmxia 发表于 2021-1-8 16:22:30 | 显示全部楼层
 
太好啦&萬分感謝版主的無私發佈分享%
回复

使用道具 举报

 
ggang1 发表于 2021-1-12 09:52:12 | 显示全部楼层
 

好网站  希望越来越好
回复

使用道具 举报

 
ggang1 发表于 2021-1-14 10:13:43 | 显示全部楼层
 
谢楼主分享
回复

使用道具 举报

 
feiyue 发表于 2021-1-16 19:16:31 | 显示全部楼层
 

非常感谢蓝光高清网给大家的享乐4k,祝蓝光高清网越办越好!
回复

使用道具 举报

 
又见阿狼 发表于 2021-1-17 12:06:24 来自手机 | 显示全部楼层
 
还好还好哈
回复

使用道具 举报

 
zq0633 发表于 2021-1-20 09:29:39 | 显示全部楼层
 
谢谢楼主
回复

使用道具 举报

 
ggang1 发表于 2021-1-26 10:54:16 | 显示全部楼层
 
非常感谢蓝光高清网分享的各种知识和资源,祝蓝光高清网越来越好
回复

使用道具 举报

 
您需要登录后才可以回帖 登录 | 立即注册

本版积分规则

0关注

2粉丝

93704帖子

  • 版块推荐
  • 百宝箱

电影推荐

更多+

热门电影

更多+

下载APP 签到更便捷

官方微信

手机APP

蓝光高清网

专注4k电影、4k视频、VR视频、高清电影、蓝光原盘资源

本站内容部分由用户自主分享和转载自互联网,转载目的在于传递更多信息,并不代表本网赞同其观点和对其真实性负责。

如有侵权、违反国家法律政策行为,请联系我们,我们会第一时间及时清除和处理!

举报反馈邮箱:lanniao@1080pro.net

Copyright   ©2019-2020  蓝光高清网    |网站地图