[剧情] 正午/日正当中/龙城歼霸战 High.Noon.1952.1080p.BluRay.x264.DTS-FGT 7.01GB

[复制链接]
蓝鸟VIP会员 永久VIP 发表于 2019-8-21 21:49:57 | 显示全部楼层 |阅读模式 打印 上一主题 下一主题

马上注册,轻松下载,海量资源,让你轻松玩转社区。

您需要 登录 才可以下载或查看,没有帐号?立即注册

x

?
◎译  名 正午/日正当中/龙城歼霸战
◎片  名 High Noon
◎年  代 1952
◎国  家 美国
◎类  别 剧情/西部
◎语  言 英语
◎上映日期 1952-07-07(美国)
◎IMDb评分  8.1/10 from 70,479 users
◎IMDb链接  http://www.imdb.com/title/tt0044706/
◎豆瓣评分 8.3/10 from 7,798 users
◎豆瓣链接 http://movie.douban.com/subject/1298521/
◎片  长 85分钟
◎导  演 弗雷德·金尼曼 Fred Zinnemann
◎主  演 加里·库柏 Gary Cooper
      格蕾丝·凯利 Grace Kelly
      托马斯·米切尔 Thomas Mitchell
      劳埃德·布里奇斯 Lloyd Bridges
      凯蒂·乔拉杜 Katy Jurado
      Otto Kruger
      小隆·查内 Lon Chaney Jr.
      李·范·克里夫 Lee Van Cleef
◎简  介
  小镇执法官威尔·凯恩(加里·库柏 Gary Cooper 饰)在卸任的当天,同未婚妻艾米(Grace Kelly 饰)举行了婚礼,两人预备开始蜜月旅行的当口,小镇迎来了三位不速之客,他们是皮尔斯、科比和本,三人在火车站等候五年前被威尔抓获的恶棍弗兰克·米勒。预感小镇将被卷入一场血腥仇杀的人们纷纷躲避,或者力劝威尔离开,但前任执法官执意留下,并开始在镇上寻找帮手,岂料不得升迁的员警哈维、当年审判弗兰克的法官等人全部与此事撇清了关系,新婚妻子亦不支持威尔的坚守,孤立无援的威尔只得拿起自己的枪战斗……
  这部影片中的时间与真实世界中的时间步调一致。本片获1953年奥斯卡最佳男主角奖等十余项专业褒奖。
◎获奖情况
  第25届奥斯卡金像奖 (1953)
  最佳影片(提名) 斯坦利·克雷默
  最佳导演(提名) 弗雷德·金尼曼
  最佳男主角 加里·库珀
  最佳编剧(提名) 卡尔·福尔曼
  最佳剪辑 埃尔莫·威廉姆斯 / Harry W. Gerstad
  剧情/喜剧片最佳配乐 迪米特里·迪奥姆金
  最佳原创歌曲 迪米特里·迪奥姆金 / Ned Washington
Video
ID                                       : 1
Format                                   : AVC
Format/Info                              : Advanced Video Codec
Format profile                           : [email protected]
Format settings, CABAC                   : Yes
Format settings, ReFrames                : 4 frames
Codec ID                                 : V_MPEG4/ISO/AVC
Duration                                 : 1h 25mn
Bit rate                                 : 10.8 Mbps
Width                                    : 1 452 pixels
Height                                   : 1 080 pixels
Display aspect ratio                     : 4:3
Frame rate mode                          : Constant
Frame rate                               : 23.976 fps
Color space                              : YUV
Chroma subsampling                       : 4:2:0
Bit depth                                : 8 bits
Scan type                                : Progressive
Bits/(Pixel*Frame)                       : 0.287
Stream size                              : 6.41 GiB (91%)
Writing library                          : x264 core 138 r2358 9e941d1
Encoding settings                        : cabac=1 / ref=4 / deblock=1:-1:-1 / analyse=0x3:0x113 / me=umh / subme=10 / psy=1 / psy_rd=1.00:0.15 / mixed_ref=1 / me_range=24 / chroma_me=1 / trellis=2 / 8x8dct=1 / cqm=0 / deadzone=21,11 / fast_pskip=0 / chroma_qp_offset=-3 / threads=6 / lookahead_threads=1 / sliced_threads=0 / nr=0 / decimate=1 / interlaced=0 / bluray_compat=0 / constrained_intra=0 / bframes=6 / b_pyramid=2 / b_adapt=2 / b_bias=0 / direct=1 / weightb=1 / open_gop=0 / weightp=2 / keyint=230 / keyint_min=23 / scenecut=40 / intra_refresh=0 / rc_lookahead=40 / rc=crf / mbtree=0 / crf=19.5 / qcomp=0.60 / qpmin=0 / qpmax=69 / qpstep=4 / vbv_maxrate=50000 / vbv_bufsize=62500 / crf_max=0.0 / nal_hrd=none / ip_ratio=1.40 / pb_ratio=1.30 / aq=1:1.00
Language                                 : English
Default                                  : Yes
Forced                                   : No
Audio
ID                                       : 2
Format                                   : DTS
Format/Info                              : Digital Theater Systems
Mode                                     : 16
Format settings, Endianness              : Big
Codec ID                                 : A_DTS
Duration                                 : 1h 25mn
Bit rate mode                            : Constant
Bit rate                                 : 768 Kbps
Channel(s)                               : 1 channel
Channel positions                        : Front: C
Sampling rate                            : 48.0 KHz
Bit depth                                : 16 bits
Compression mode                         : Lossy
Stream size                              : 468 MiB (7%)
Language                                 : English
Default                                  : Yes
Forced                                   : No
Menu
00:00:00.000                             : en:Opening
00:06:26.595                             : en:Hanging Up the Star
00:13:45.908                             : en:Wife or Widow
00:27:05.666                             : en:A Single Volunteer
00:43:21.599                             : en:Church Meeting
00:54:47.618                             : en:Mrs. Kane   Mrs Ramirez
01:08:15.633                             : en:Waiting for the Noon Train
01:13:58.976                             : en:Showdown

精彩剧照


                                       

蓝光高清网提示您 点击下方附件名称 马上开始下载



温馨提示:
本站资源优先使用迅雷下载,迅雷会员下载,速度基本可以跑满宽带
如果遇到无资源或者版权问题无法下载,推荐使用115网盘离线下载(点击查看115网盘离线下载教程


  • 该资源需要您回复以后 刷新网页进行下载操作

  • 1、High.Noon.1952.1080p.BluRay.x264.DTS-FGT.torrent 71KB 已下载 0 次

加入蓝光高清网VIP会员  无限制下载本站所有资源---点此加入

资源下载、资源播放、字幕使用、无法下载等常见问题---点这里

回复

使用道具 举报

精彩评论1

krh123 发表于 2019-8-21 21:57:44 | 显示全部楼层
楼主幸苦了

加入蓝光高清网VIP会员  无限制下载本站所有资源---点此加入

资源下载、资源播放、字幕使用、无法下载等常见问题---点这里

回复

使用道具 举报

懒得打字嘛,点击右侧快捷回复
高级模式
B Color Image Link Quote Code Smilies 上传

本版积分规则

关注0

粉丝0

帖子66703

发布主题
最新电影 论坛
广告位
联系我们
点击这里联系客服

服务时间:
周一到周日8:00-23:30

  • 打开微信扫一扫
    关注公众号

  • 手机QQ扫一扫
    添加客服

Archiver手机版蓝光高清网 ( 渝ICP备18006373号-2 )|网站地图

Powered by Discuz! X3.4  © 2001-2013 Comsenz Inc.