[动画] 萤火虫之墓/再见萤火虫 Grave.of.the.Fireflies.1988.JAPANESE.1080p.BluRay.x264.DTS-FGT 11.66

[复制链接]
蓝鸟VIP会员 永久VIP 发表于 2019-8-21 21:50:48 | 显示全部楼层 |阅读模式 打印 上一主题 下一主题

马上注册,轻松下载,海量资源,让你轻松玩转社区。

您需要 登录 才可以下载或查看,没有帐号?立即注册

x


◎译  名 萤火虫之墓/再见萤火虫(港)/萤火挽歌/火帘之墓
◎片  名 火垂るの墓
◎年  代 1988
◎国  家 日本
◎类  别 动画/剧情/战争
◎语  言 日语
◎上映日期 1988-04-16(日本)
◎IMDb评分  8.5/10 from 111,330 users
◎IMDb链接  http://www.imdb.com/title/tt0095327/
◎豆瓣评分 8.8/10 from 154,554 users
◎豆瓣链接 http://movie.douban.com/subject/1293318/
◎片  长 89 分钟
◎导  演 高畑勋 Isao Takahata
◎主  演 辰己努
      白石绫乃
      志乃原良子
      山口朱美
      端田宏三
◎简  介
  美日战争爆发,14岁的清太带着年幼的妹妹到处逃命,当他们到达防空洞的时候,母亲已身受重伤,没过多久便不久人世。两兄妹自此过着相依为命的日子。他们只好投靠了母亲的姐妹,纵使他们把家里所有的家当都送给了阿姨,但当食物吃完,他们就越感到了寄人篱下的感觉,清太决定带着妹妹离开独自生活。火灾硝烟中的生活并不好过,清太为了妹妹四处偷取食物,但妹妹还是严重营养不良……
Video
ID                                       : 1
Format                                   : AVC
Format/Info                              : Advanced Video Codec
Format profile                           : [email protected]
Format settings, CABAC                   : Yes
Format settings, ReFrames                : 4 frames
Codec ID                                 : V_MPEG4/ISO/AVC
Duration                                 : 1h 28mn
Bit rate                                 : 17.0 Mbps
Width                                    : 1 920 pixels
Height                                   : 1 040 pixels
Display aspect ratio                     : 1.85:1
Frame rate mode                          : Constant
Frame rate                               : 23.976 fps
Color space                              : YUV
Chroma subsampling                       : 4:2:0
Bit depth                                : 8 bits
Scan type                                : Progressive
Bits/(Pixel*Frame)                       : 0.355
Stream size                              : 10.5 GiB (90%)
Writing library                          : x264 core 125 r2208kMod d9d2288
Encoding settings                        : cabac=1 / ref=4 / deblock=1:-3:-3 / analyse=0x3:0x113 / me=umh / subme=11 / psy=1 / fade_compensate=0.00 / psy_rd=1.00:0.00 / mixed_ref=1 / me_range=48 / chroma_me=1 / trellis=2 / 8x8dct=1 / cqm=0 / deadzone=21,11 / fast_pskip=1 / chroma_qp_offset=-2 / threads=12 / lookahead_threads=2 / sliced_threads=0 / nr=0 / decimate=1 / interlaced=0 / bluray_compat=0 / constrained_intra=0 / bframes=6 / b_pyramid=2 / b_adapt=2 / b_bias=0 / direct=1 / weightb=1 / open_gop=0 / weightp=2 / keyint=250 / keyint_min=23 / scenecut=40 / intra_refresh=0 / rc_lookahead=40 / rc=crf / mbtree=0 / crf=17.0000 / qcomp=0.75 / qpmin=0 / qpmax=69 / qpstep=4 / vbv_maxrate=50000 / vbv_bufsize=62500 / crf_max=0.0 / nal_hrd=none / ip_ratio=1.40 / pb_ratio=1.30 / aq=1:0.80
Language                                 : Japanese
Default                                  : Yes
Forced                                   : No
Color range                              : Limited
Matrix coefficients                      : BT.709
Audio
ID                                       : 2
Format                                   : DTS
Format/Info                              : Digital Theater Systems
Mode                                     : 16
Format settings, Endianness              : Big
Codec ID                                 : A_DTS
Duration                                 : 1h 28mn
Bit rate mode                            : Constant
Bit rate                                 : 1 509 Kbps
Channel(s)                               : 2 channels
Channel positions                        : Front: L R
Sampling rate                            : 48.0 KHz
Bit depth                                : 24 bits
Compression mode                         : Lossy
Stream size                              : 956 MiB (8%)
Language                                 : Japanese
Default                                  : Yes
Forced                                   : No
Text
ID                                       : 3
Format                                   : UTF-8
Codec ID                                 : S_TEXT/UTF8
Codec ID/Info                            : UTF-8 Plain Text
Language                                 : English
Default                                  : Yes
Forced                                   : Yes
Menu
00:00:00.000                             : en:Opening
00:03:27.539                             : en:Town in Flames
00:13:24.428                             : en:Mama\ s Hurt
00:25:54.594                             : en:Welcome Home
00:36:15.715                             : en:War Effort
00:43:36.362                             : en:White Rose
00:52:10.252                             : en:So Selfish
00:56:29.385                             : en:Fireflies
01:04:10.345                             : en:Uh-Oh
01:13:30.322                             : en:Air Raid
01:19:35.645                             : en:Rice Balls
01:25:33.920                             : en:The Funeral
01:28:31.597                             : en:End Credits

精彩剧照


                                       

蓝光高清网提示您 点击下方附件名称 马上开始下载



温馨提示:
本站资源优先使用迅雷下载,迅雷会员下载,速度基本可以跑满宽带
如果遇到无资源或者版权问题无法下载,推荐使用115网盘离线下载(点击查看115网盘离线下载教程


  • 该资源需要您回复以后 刷新网页进行下载操作

  • 1、Grave.of.the.Fireflies.1988.JAPANESE.1080p.BluRay.x264.DTS-FGT.torrent 59KB 已下载 0 次

加入蓝光高清网VIP会员  无限制下载本站所有资源---点此加入

资源下载、资源播放、字幕使用、无法下载等常见问题---点这里

回复

使用道具 举报

懒得打字嘛,点击右侧快捷回复
高级模式
B Color Image Link Quote Code Smilies 上传

本版积分规则

关注0

粉丝0

帖子69429

发布主题
最新电影 论坛
广告位
联系我们
点击这里联系客服

服务时间:
周一到周日8:00-23:30

  • 打开微信扫一扫
    关注公众号

  • 手机QQ扫一扫
    添加客服

Archiver手机版蓝光高清网 ( 渝ICP备18006373号-2 )|网站地图

Powered by Discuz! X3.4  © 2001-2013 Comsenz Inc.