[剧情] 纵情四海/哭泣的男 The.Man.Who.Cried.2000.1080p.BluRay.x264.DD5.1-FGT 10.37GB

[复制链接]
蓝鸟VIP会员 永久VIP 发表于 2019-8-21 21:52:27 | 显示全部楼层 |阅读模式 打印 上一主题 下一主题

马上注册,轻松下载,海量资源,让你轻松玩转社区。

您需要 登录 才可以下载或查看,没有帐号?立即注册

x


◎译  名 纵情四海/哭泣的男人/哭泣的恋人
◎片  名 The Man Who Cried
◎年  代 2000
◎国  家 英国/法国
◎类  别 剧情/音乐/爱情/战争
◎语  言 英语/法语/意大利语/罗马尼亚语/俄语/吉普赛语
◎上映日期 2000-12-08
◎IMDb评分  6.2/10 from 11,953 users
◎IMDb链接  http://www.imdb.com/title/tt0206917/
◎豆瓣评分 7.7/10 from 3,273 users
◎豆瓣链接 http://movie.douban.com/subject/1305526/
◎片  长 100 分钟/Italy: 97 分钟(Venice Film Festival)
◎导  演 莎莉·波特 Sally Potter
◎主  演 克里斯蒂娜·里奇 Christina Ricci
      凯特·布兰切特 Cate Blanchett
      约翰·特托罗 John Turturro
      约翰尼·德普 Johnny Depp
◎简  介
  犹太小姑娘“飞莺儿”和父亲、奶奶生活在俄罗斯的小村庄里,为了生计父亲前往美国希望可以延续自己的歌唱生涯。父亲离开后不久村庄遭到了洗劫,飞莺儿和两个男孩一同逃脱,在准备登船去美国的时候她却跟他们走散登上了去英国的邮轮。但幸运的是一对夫妇收养了她并改名叫苏西,成年后的苏西(克里斯蒂娜·里奇 Christina Ricci 饰)被歌舞团录取来到了巴黎。期间她结识了热爱物质的萝拉(凯特·布兰切特Cate Blanchett 饰)和贪婪的歌唱家但丁(约翰·特托罗 John Turturro 饰),还有神秘的吉普赛马夫凯撒(约翰尼·德普 Johnny Depp 饰)。纳粹的铁蹄一天天逼近巴黎,不巧的是苏西犹太人的血统被但丁发现了,而在这时苏西已经与凯撒深深相爱,陷入苦恼的苏西无法抉择,一天晚上,凯撒来到了苏西的房间……
Video
ID                                       : 1
Format                                   : AVC
Format/Info                              : Advanced Video Codec
Format profile                           : [email protected]
Format settings, CABAC                   : Yes
Format settings, ReFrames                : 4 frames
Codec ID                                 : V_MPEG4/ISO/AVC
Duration                                 : 1h 39mn
Bit rate                                 : 14.3 Mbps
Width                                    : 1 912 pixels
Height                                   : 1 072 pixels
Display aspect ratio                     : 16:9
Frame rate mode                          : Constant
Frame rate                               : 23.976 fps
Color space                              : YUV
Chroma subsampling                       : 4:2:0
Bit depth                                : 8 bits
Scan type                                : Progressive
Bits/(Pixel*Frame)                       : 0.292
Stream size                              : 10.0 GiB (97%)
Writing library                          : x264 core 146 r2538 121396c
Encoding settings                        : cabac=1 / ref=4 / deblock=1:-1:-1 / analyse=0x3:0x113 / me=umh / subme=10 / psy=1 / psy_rd=1.00:0.15 / mixed_ref=1 / me_range=32 / chroma_me=1 / trellis=2 / 8x8dct=1 / cqm=0 / deadzone=21,11 / fast_pskip=1 / chroma_qp_offset=-3 / threads=6 / lookahead_threads=1 / sliced_threads=0 / nr=0 / decimate=1 / interlaced=0 / bluray_compat=0 / constrained_intra=0 / bframes=13 / b_pyramid=2 / b_adapt=2 / b_bias=0 / direct=1 / weightb=1 / open_gop=0 / weightp=2 / keyint=230 / keyint_min=23 / scenecut=40 / intra_refresh=0 / rc_lookahead=40 / rc=crf / mbtree=0 / crf=19.0 / qcomp=0.60 / qpmin=0 / qpmax=69 / qpstep=4 / vbv_maxrate=40000 / vbv_bufsize=50000 / crf_max=0.0 / nal_hrd=none / filler=0 / ip_ratio=1.40 / pb_ratio=1.30 / aq=1:1.00
Language                                 : English
Default                                  : Yes
Forced                                   : No
Audio
ID                                       : 2
Format                                   : AC-3
Format/Info                              : Audio Coding 3
Mode extension                           : CM (complete main)
Format settings, Endianness              : Big
Codec ID                                 : A_AC3
Duration                                 : 1h 39mn
Bit rate mode                            : Constant
Bit rate                                 : 224 Kbps
Channel(s)                               : 6 channels
Channel positions                        : Front: L C R, Side: L R, LFE
Sampling rate                            : 48.0 KHz
Bit depth                                : 16 bits
Compression mode                         : Lossy
Stream size                              : 160 MiB (2%)
Language                                 : English
Default                                  : Yes
Forced                                   : No
Text
ID                                       : 3
Format                                   : UTF-8
Codec ID                                 : S_TEXT/UTF8
Codec ID/Info                            : UTF-8 Plain Text
Language                                 : English
Default                                  : No
Forced                                   : No

精彩剧照


                                       

蓝光高清网提示您 点击下方附件名称 马上开始下载



温馨提示:
本站资源优先使用迅雷下载,迅雷会员下载,速度基本可以跑满宽带
如果遇到无资源或者版权问题无法下载,推荐使用115网盘离线下载(点击查看115网盘离线下载教程


  • 该资源需要您回复以后 刷新网页进行下载操作

  • 1、The.Man.Who.Cried.2000.1080p.BluRay.x264.DD5.1-FGT.torrent 52KB 已下载 0 次

加入蓝光高清网VIP会员  无限制下载本站所有资源---点此加入

资源下载、资源播放、字幕使用、无法下载等常见问题---点这里

回复

使用道具 举报

懒得打字嘛,点击右侧快捷回复
高级模式
B Color Image Link Quote Code Smilies 上传

本版积分规则

关注0

粉丝0

帖子66311

发布主题
最新电影 论坛
广告位
联系我们
点击这里联系客服

服务时间:
周一到周日8:00-23:30

  • 打开微信扫一扫
    关注公众号

  • 手机QQ扫一扫
    添加客服

Archiver手机版蓝光高清网 ( 渝ICP备18006373号-2 )|网站地图

Powered by Discuz! X3.4  © 2001-2013 Comsenz Inc.