[惊悚] 好医生/凶心仁术/一个好医生 The.Good.Doctor.2011.1080p.BluRay.x264.DTS-FGT 10.62GB

[复制链接]
蓝鸟VIP会员 永久VIP 发表于 2019-8-21 21:53:17 | 显示全部楼层 |阅读模式 打印 上一主题 下一主题

马上注册,轻松下载,海量资源,让你轻松玩转社区。

您需要 登录 才可以下载或查看,没有帐号?立即注册

x


◎译  名 好医生/凶心仁术(港)/一个好医生
◎片  名 The Good Doctor
◎年  代 2011
◎国  家 美国
◎类  别 剧情/惊悚
◎语  言 英语
◎上映日期 2011-04-23(翠贝卡电影节)/2012-08-31(美国)
◎IMDb评分  5.6/10 from 4,553 users
◎IMDb链接  http://www.imdb.com/title/tt1582271/
◎豆瓣评分 6.8/10 from 2,209 users
◎豆瓣链接 http://movie.douban.com/subject/4281535/
◎片  长 91分钟
◎导  演 兰斯·戴利 Lance Daly
◎主  演 奥兰多·布鲁姆 Orlando Bloom
      丽莉·克亚芙 Riley Keough
      塔拉吉·P·汉森 Taraji P. Henson
      罗伯·莫洛 Rob Morrow
      迈克尔·佩纳 Michael Pe?a
◎简  介
  为了给同事们一个好印象,马丁医生(奥兰多·布鲁姆 Orlando Bloom 饰)一直在做着不懈的努力,可是天不遂人愿,即便如此,马丁依然没有获得他想要的成功和信任。十八岁的少女戴安妮(莱莉·科奥 Riley Keough 饰)因为肾病被转入了马丁所在的医院,马丁顺理成章的成为了她的主治医生。
  在马丁的精心照料下,戴安妮的病情逐渐好转,可也就是在此过程中,马丁对善良美丽的戴安妮产生了超越了医患关系的复杂感情。为了能将戴安妮更久的留在身边,马丁偷偷篡改了她的药方,使得戴安妮的病情加重。一次偶然中,医护员吉米(迈克尔·佩纳 Michael Pena 饰)发现了马丁的秘密,并非善类的吉米以此开始了对马丁的敲诈。
Video
ID                                       : 1
Format                                   : AVC
Format/Info                              : Advanced Video Codec
Format profile                           : [email protected]
Format settings, CABAC                   : Yes
Format settings, ReFrames                : 4 frames
Codec ID                                 : V_MPEG4/ISO/AVC
Duration                                 : 1h 30mn
Bit rate                                 : 14.9 Mbps
Width                                    : 1 920 pixels
Height                                   : 1 040 pixels
Display aspect ratio                     : 1.85:1
Frame rate mode                          : Constant
Frame rate                               : 23.976 fps
Color space                              : YUV
Chroma subsampling                       : 4:2:0
Bit depth                                : 8 bits
Scan type                                : Progressive
Bits/(Pixel*Frame)                       : 0.311
Stream size                              : 9.45 GiB (89%)
Writing library                          : x264 core 125 r2200 999b753
Encoding settings                        : cabac=1 / ref=4 / deblock=1:-1:-1 / analyse=0x3:0x133 / me=umh / subme=10 / psy=1 / psy_rd=1.00:0.10 / mixed_ref=1 / me_range=32 / chroma_me=1 / trellis=2 / 8x8dct=1 / cqm=0 / deadzone=21,11 / fast_pskip=0 / chroma_qp_offset=-3 / threads=24 / lookahead_threads=4 / sliced_threads=0 / nr=0 / decimate=0 / interlaced=0 / bluray_compat=0 / constrained_intra=0 / bframes=8 / b_pyramid=2 / b_adapt=2 / b_bias=0 / direct=3 / weightb=1 / open_gop=0 / weightp=2 / keyint=360 / keyint_min=24 / scenecut=40 / intra_refresh=0 / rc_lookahead=250 / rc=crf / mbtree=1 / crf=18.0 / qcomp=0.60 / qpmin=0 / qpmax=69 / qpstep=4 / ip_ratio=1.40 / aq=2:1.00
Language                                 : English
Default                                  : Yes
Forced                                   : No
Audio
ID                                       : 2
Format                                   : DTS
Format/Info                              : Digital Theater Systems
Mode                                     : 16
Format settings, Endianness              : Big
Codec ID                                 : A_DTS
Duration                                 : 1h 30mn
Bit rate mode                            : Constant
Bit rate                                 : 1 509 Kbps
Channel(s)                               : 6 channels
Channel positions                        : Front: L C R, Side: L R, LFE
Sampling rate                            : 48.0 KHz
Bit depth                                : 16 bits
Compression mode                         : Lossy
Stream size                              : 980 MiB (9%)
Language                                 : English
Default                                  : Yes
Forced                                   : No
Text
ID                                       : 3
Format                                   : UTF-8
Codec ID                                 : S_TEXT/UTF8
Codec ID/Info                            : UTF-8 Plain Text
Language                                 : English
Default                                  : No
Forced                                   : No
Menu
00:00:00.000                             : :1:  COMMUNICATION
00:06:06.000                             : :2:  LONELY
00:09:39.000                             : :3:  DIANE
00:15:34.000                             : :4:  GOOD PATIENT
00:20:10.250                             : :5:  THE DINNER
00:26:55.000                             : :6:  LOST
00:32:28.000                             : :7:  MANIPULATION
00:39:10.000                             : :8:  MARTINS GAME
00:43:44.000                             : :9:  DIFFICULT CASES
00:49:34.000                             : :10:  WRONG DIAGNOSIS
00:53:29.000                             : :11:  FAREWELL
01:00:08.000                             : :12:  THE FIRST TIME
01:05:03.000                             : :13:  EXTORTION
01:11:47.000                             : :14:  DANGEROUS DRUG
01:17:27.000                             : :15:  THE DECISION
01:27:34.000                             : :16:  CREDITS

精彩剧照


                                       

蓝光高清网提示您 点击下方附件名称 马上开始下载



温馨提示:
本站资源优先使用迅雷下载,迅雷会员下载,速度基本可以跑满宽带
如果遇到无资源或者版权问题无法下载,推荐使用115网盘离线下载(点击查看115网盘离线下载教程


  • 该资源需要您回复以后 刷新网页进行下载操作

  • 1、The.Good.Doctor.2011.1080p.BluRay.x264.DTS-FGT.torrent 54KB 已下载 0 次

加入蓝光高清网VIP会员  无限制下载本站所有资源---点此加入

资源下载、资源播放、字幕使用、无法下载等常见问题---点这里

回复

使用道具 举报

懒得打字嘛,点击右侧快捷回复
高级模式
B Color Image Link Quote Code Smilies 上传

本版积分规则

关注0

粉丝0

帖子69282

发布主题
最新电影 论坛
广告位
联系我们
点击这里联系客服

服务时间:
周一到周日8:00-23:30

  • 打开微信扫一扫
    关注公众号

  • 手机QQ扫一扫
    添加客服

Archiver手机版蓝光高清网 ( 渝ICP备18006373号-2 )|网站地图

Powered by Discuz! X3.4  © 2001-2013 Comsenz Inc.