[犯罪] 历劫佳人/狂野生死恋 Touch.of.Evil.1958.RECONSTRUCTED.1080p.BluRay.x264.DTS-FGT 7.65GB

[复制链接]
蓝鸟VIP会员 永久VIP 发表于 2019-8-21 21:54:54 | 显示全部楼层 |阅读模式 打印 上一主题 下一主题

马上注册,轻松下载,海量资源,让你轻松玩转社区。

您需要 登录 才可以下载或查看,没有帐号?立即注册

x


◎译  名 历劫佳人/狂野生死恋/历劫名花/邪恶的接触/邪恶之触/恶之触
◎片  名 Touch of Evil
◎年  代 1958
◎国  家 美国
◎类  别 犯罪/黑色电影/惊悚
◎语  言 英语/西班牙语
◎上映日期 1958-04-23
◎IMDb评分  8.2/10 from 63,940 users
◎IMDb链接  http://www.imdb.com/title/tt0052311/
◎豆瓣评分 8.2/10 from 3,101 users
◎豆瓣链接 http://movie.douban.com/subject/1294756/
◎片  长 95 分钟/Germany: 111 分钟(1998 alternate version)/USA: 108 分钟(1975 alternate version)/USA: 112 分钟(director s cut)/Spain: 106 分钟(DVD edition)
◎导  演 奥逊·威尔斯 Orson Welles
◎主  演 查尔登·海斯顿 Charlton Heston
      珍妮特·利 Janet Leigh
      奥逊·威尔斯 Orson Welles
      约瑟夫·卡利亚 Joseph Calleia
      阿基姆·坦米罗夫 Akim Tamiroff
      Joanna Moore
      Ray Collins
      丹尼斯·韦弗 Dennis Weaver
      Valentin de Vargas
      Mort Mills
      Victor Millan
      Lalo Rios
      Michael Sargent
      Phil Harvey
      乔伊·兰辛 Joi Lansing
◎简  介
  缉毒官员Newlyweds Miguel  Mike  Vargas(查尔登·海斯顿 Charlton Heston 饰)和他的妻子Susie(珍妮特·利 Janet Leigh 饰)来到了美国和墨西哥的边界。马路上发生了一起汽车爆炸事件,Vargas认为这起案件跟毒贩子有关,遂和当地的警察们一起展开了调查。Hank Quinlan(奥逊·威尔斯 Orson Welles 饰)是警察队长,在当地名声甚响。当地警方把嫌疑集中在一个叫Sanchez的人身上,Vargas却在Sanchez的家中发现了证明他不是犯人的证据。然而Quinlan执意认为Sanchez就是犯人。Vargas研究了以前Quinlan办过的案件,对这个赫赫有名的警察队长产生了不少疑问。而Vargas的妻子Susie在旅馆里却被一帮人所绑架并陷害,Vargas怀疑这一切的背后都是Quinlan在操纵。Vargas在和Quinlan的对抗中会有怎样的结局?
  本片由执导了《公民凯恩》的奥逊·威尔斯自编自导自演,共有三个版本:1958年发行的版本,1976年的加长版,1998年发现的可能更符合威尔斯想法的版本。
Video
ID                                       : 1
Format                                   : AVC
Format/Info                              : Advanced Video Codec
Format profile                           : [email protected]
Format settings, CABAC                   : Yes
Format settings, ReFrames                : 4 frames
Codec ID                                 : V_MPEG4/ISO/AVC
Duration                                 : 1h 50mn
Bit rate                                 : 9 376 Kbps
Width                                    : 1 920 pixels
Height                                   : 1 040 pixels
Display aspect ratio                     : 1.85:1
Frame rate mode                          : Constant
Frame rate                               : 23.976 fps
Color space                              : YUV
Chroma subsampling                       : 4:2:0
Bit depth                                : 8 bits
Scan type                                : Progressive
Bits/(Pixel*Frame)                       : 0.196
Stream size                              : 7.10 GiB (93%)
Writing library                          : x264 core 119 r2106 07efeb4
Encoding settings                        : cabac=1 / ref=4 / deblock=1:0:0 / analyse=0x3:0x113 / me=umh / subme=8 / psy=1 / psy_rd=1.00:0.00 / mixed_ref=1 / me_range=16 / chroma_me=1 / trellis=1 / 8x8dct=1 / cqm=0 / deadzone=21,11 / fast_pskip=1 / chroma_qp_offset=-2 / threads=12 / sliced_threads=0 / nr=0 / decimate=1 / interlaced=0 / bluray_compat=0 / constrained_intra=0 / bframes=3 / b_pyramid=2 / b_adapt=2 / b_bias=0 / direct=3 / weightb=1 / open_gop=0 / weightp=2 / keyint=240 / keyint_min=24 / scenecut=40 / intra_refresh=0 / rc_lookahead=50 / rc=2pass / mbtree=1 / bitrate=9376 / ratetol=1.0 / qcomp=0.60 / qpmin=0 / qpmax=69 / qpstep=4 / cplxblur=20.0 / qblur=0.5 / ip_ratio=1.40 / aq=1:1.00
Language                                 : English
Default                                  : Yes
Forced                                   : No
Audio
ID                                       : 2
Format                                   : DTS
Format/Info                              : Digital Theater Systems
Mode                                     : 16
Format settings, Endianness              : Big
Codec ID                                 : A_DTS
Duration                                 : 1h 50mn
Bit rate mode                            : Constant
Bit rate                                 : 510 Kbps
Channel(s)                               : 2 channels
Channel positions                        : Front: L R
Sampling rate                            : 48.0 KHz
Bit depth                                : 24 bits
Compression mode                         : Lossy
Stream size                              : 404 MiB (5%)
Language                                 : English
Default                                  : Yes
Forced                                   : No
Text
ID                                       : 3
Format                                   : UTF-8
Codec ID                                 : S_TEXT/UTF8
Codec ID/Info                            : UTF-8 Plain Text
Language                                 : English
Default                                  : Yes
Forced                                   : No
Menu
00:00:00.000                             : en:00:00:00.000
00:00:47.839                             : en:00:00:47.839
00:04:17.048                             : en:00:04:17.048
00:08:05.360                             : en:00:08:05.360
00:13:05.743                             : en:00:13:05.743
00:15:43.151                             : en:00:15:43.151
00:18:56.594                             : en:00:18:56.594
00:21:46.013                             : en:00:21:46.013
00:26:34.343                             : en:00:26:34.343
00:31:59.960                             : en:00:31:59.960
00:35:46.061                             : en:00:35:46.061
00:52:44.703                             : en:00:52:44.703
00:56:54.786                             : en:00:56:54.786
00:58:51.319                             : en:00:58:51.319
01:02:28.536                             : en:01:02:28.536
01:09:42.095                             : en:01:09:42.095
01:12:07.031                             : en:01:12:07.031
01:18:57.650                             : en:01:18:57.650
01:26:14.669                             : en:01:26:14.669
01:31:26.773                             : en:01:31:26.773
01:35:02.280                             : en:01:35:02.280
01:46:49.320                             : en:01:46:49.320

精彩剧照


                                       

蓝光高清网提示您 点击下方附件名称 马上开始下载



温馨提示:
本站资源优先使用迅雷下载,迅雷会员下载,速度基本可以跑满宽带
如果遇到无资源或者版权问题无法下载,推荐使用115网盘离线下载(点击查看115网盘离线下载教程


  • 该资源需要您回复以后 刷新网页进行下载操作

  • 1、Touch.of.Evil.1958.RECONSTRUCTED.1080p.BluRay.x264.DTS-FGT.torrent 77KB 已下载 0 次

加入蓝光高清网VIP会员  无限制下载本站所有资源---点此加入

资源下载、资源播放、字幕使用、无法下载等常见问题---点这里

回复

使用道具 举报

懒得打字嘛,点击右侧快捷回复
高级模式
B Color Image Link Quote Code Smilies 上传

本版积分规则

关注0

粉丝0

帖子68004

发布主题
最新电影 论坛
广告位
联系我们
点击这里联系客服

服务时间:
周一到周日8:00-23:30

  • 打开微信扫一扫
    关注公众号

  • 手机QQ扫一扫
    添加客服

Archiver手机版蓝光高清网 ( 渝ICP备18006373号-2 )|网站地图

Powered by Discuz! X3.4  © 2001-2013 Comsenz Inc.