[动画] 新绿野仙踪 The.Wiz.1978.1080p.BluRay.x264.DTS-FGT 12.44GB

[复制链接]
蓝鸟VIP会员 永久VIP 发表于 2019-8-21 21:55:43 | 显示全部楼层 |阅读模式 打印 上一主题 下一主题

马上注册,轻松下载,海量资源,让你轻松玩转社区。

您需要 登录 才可以下载或查看,没有帐号?立即注册

x


◎译  名 新绿野仙踪
◎片  名 The Wiz
◎年  代 1978
◎国  家 美国
◎类  别 冒险/家庭/奇幻/歌舞
◎语  言 英语
◎上映日期 1978-10-24
◎IMDb评分  5.2/10 from 9,831 users
◎IMDb链接  http://www.imdb.com/title/tt0078504/
◎豆瓣评分 7.5/10 from 174 users
◎豆瓣链接 http://movie.douban.com/subject/1299773/
◎片  长 134 分钟/Finland: 136 分钟(uncut version)/Finland: 118 分钟(cut version)/UK: 128 分钟
◎导  演 西德尼·吕美特 Sidney Lumet
◎主  演 黛安娜·罗斯 Diana Ross
      迈克尔·杰克逊 Michael Jackson
      莱娜·霍恩 Lena Horne
      理查德·普赖尔 Richard Pryor
      昆西·琼斯 Quincy Jones
◎简  介
  桃乐丝是一名24岁的布鲁克林学校老师。一日,当她在暴风雨中走出家门,没想到竟走入了神秘的欧兹国……  
       她沿着黄砖道寻找回家的路,一路上碰到了稻草人、锡铁人与胆小的狮子,四人一同往翡翠市前进,却遇上大巫师的百般阻挠。 
       勇敢的桃乐丝是否能找到回家的路呢?
◎获奖情况
  第51届奥斯卡金像奖 (1979)
  最佳摄影(提名) Oswald Morris
  最佳美术指导(提名) Philip Rosenberg / Robert Drumheller / Edward Stewart / Tony Walton
  Best Music, Original Song Score and Its Adaptation or Best Adaptation Score(提名) 昆西·琼斯
Video
ID                                       : 1
Format                                   : AVC
Format/Info                              : Advanced Video Codec
Format profile                           : [email protected]
Format settings, CABAC                   : Yes
Format settings, ReFrames                : 4 frames
Codec ID                                 : V_MPEG4/ISO/AVC
Duration                                 : 2h 14mn
Bit rate                                 : 11.5 Mbps
Width                                    : 1 920 pixels
Height                                   : 1 042 pixels
Display aspect ratio                     : 1.85:1
Frame rate mode                          : Constant
Frame rate                               : 23.976 fps
Color space                              : YUV
Chroma subsampling                       : 4:2:0
Bit depth                                : 8 bits
Scan type                                : Progressive
Bits/(Pixel*Frame)                       : 0.240
Stream size                              : 10.8 GiB (87%)
Writing library                          : x264 core 130 r2273 b3065e6
Encoding settings                        : cabac=1 / ref=4 / deblock=1:-1:-1 / analyse=0x3:0x113 / me=umh / subme=10 / psy=1 / psy_rd=1.00:0.15 / mixed_ref=1 / me_range=48 / chroma_me=1 / trellis=2 / 8x8dct=1 / cqm=0 / deadzone=21,11 / fast_pskip=1 / chroma_qp_offset=-3 / threads=12 / lookahead_threads=2 / sliced_threads=0 / nr=0 / decimate=1 / interlaced=0 / bluray_compat=0 / constrained_intra=0 / bframes=8 / b_pyramid=2 / b_adapt=2 / b_bias=0 / direct=3 / weightb=1 / open_gop=0 / weightp=2 / keyint=250 / keyint_min=24 / scenecut=40 / intra_refresh=0 / rc_lookahead=40 / rc=crf / mbtree=0 / crf=18.0 / qcomp=0.60 / qpmin=10 / qpmax=51 / qpstep=4 / vbv_maxrate=50000 / vbv_bufsize=62500 / crf_max=0.0 / nal_hrd=none / ip_ratio=1.40 / pb_ratio=1.30 / aq=2:1.00
Language                                 : English
Default                                  : Yes
Forced                                   : No
Audio
ID                                       : 2
Format                                   : DTS
Format/Info                              : Digital Theater Systems
Mode                                     : 16
Format settings, Endianness              : Big
Codec ID                                 : A_DTS
Duration                                 : 2h 14mn
Bit rate mode                            : Constant
Bit rate                                 : 1 509 Kbps
Channel(s)                               : 6 channels
Channel positions                        : Front: L C R, Side: L R, LFE
Sampling rate                            : 48.0 KHz
Bit depth                                : 24 bits
Compression mode                         : Lossy
Stream size                              : 1.41 GiB (11%)
Language                                 : English
Default                                  : Yes
Forced                                   : No
Text
ID                                       : 3
Format                                   : UTF-8
Codec ID                                 : S_TEXT/UTF8
Codec ID/Info                            : UTF-8 Plain Text
Language                                 : English
Default                                  : No
Forced                                   : No
Menu
00:00:00.000                             : :Chapter 01
00:04:22.053                             : :Chapter 02
00:06:47.865                             : :Chapter 03
00:19:02.516                             : :Chapter 04
00:24:24.503                             : :Chapter 05
00:31:21.045                             : :Chapter 06
00:38:33.477                             : :Chapter 07
00:44:24.536                             : :Chapter 08
00:47:53.704                             : :Chapter 09
00:50:42.664                             : :Chapter 10
00:52:37.027                             : :Chapter 11
00:58:11.905                             : :Chapter 12
01:09:10.979                             : :Chapter 13
01:15:00.329                             : :Chapter 14
01:32:32.171                             : :Chapter 15
01:44:15.332                             : :Chapter 16
01:57:57.945                             : :Chapter 17
02:02:19.206                             : :Chapter 18
02:07:16.920                             : :Chapter 19
02:11:18.912                             : :Chapter 20
02:14:11.793                             : :Chapter 21

精彩剧照


                                       

蓝光高清网提示您 点击下方附件名称 马上开始下载



温馨提示:
本站资源优先使用迅雷下载,迅雷会员下载,速度基本可以跑满宽带
如果遇到无资源或者版权问题无法下载,推荐使用115网盘离线下载(点击查看115网盘离线下载教程


  • 该资源需要您回复以后 刷新网页进行下载操作

  • 1、The.Wiz.1978.1080p.BluRay.x264.DTS-FGT.torrent 63KB 已下载 0 次

加入蓝光高清网VIP会员  无限制下载本站所有资源---点此加入

资源下载、资源播放、字幕使用、无法下载等常见问题---点这里

回复

使用道具 举报

懒得打字嘛,点击右侧快捷回复
高级模式
B Color Image Link Quote Code Smilies 上传

本版积分规则

关注0

粉丝0

帖子68004

发布主题
最新电影 论坛
广告位
联系我们
点击这里联系客服

服务时间:
周一到周日8:00-23:30

  • 打开微信扫一扫
    关注公众号

  • 手机QQ扫一扫
    添加客服

Archiver手机版蓝光高清网 ( 渝ICP备18006373号-2 )|网站地图

Powered by Discuz! X3.4  © 2001-2013 Comsenz Inc.