[剧情] 最后一场电影 The.Last.Picture.Show.1971.1080p.BluRay.x264.DD1.0-FGT 11.01GB

[复制链接]
蓝鸟VIP会员 永久VIP 发表于 2019-8-21 21:56:42 | 显示全部楼层 |阅读模式 打印 上一主题 下一主题

马上注册,轻松下载,海量资源,让你轻松玩转社区。

您需要 登录 才可以下载或查看,没有帐号?立即注册

x


◎译  名 最后一场电影
◎片  名 The Last Picture Show
◎年  代 1971
◎国  家 美国
◎类  别 剧情
◎语  言 英语
◎上映日期 1971-10-22
◎IMDb评分  8.1/10 from 28,645 users
◎IMDb链接  http://www.imdb.com/title/tt0067328/
◎豆瓣评分 8.1/10 from 1,498 users
◎豆瓣链接 http://movie.douban.com/subject/1298026/
◎片  长 118 分钟/126 分钟(director s cut)
◎导  演 彼得·博格丹诺维奇 Peter Bogdanovich
◎主  演 蒂姆斯·伯特姆斯 Timothy Bottoms
      杰夫·布里吉斯 Jeff Bridges
      斯碧尔·谢波德 Cybill Shepherd
      本·约翰逊 Ben Johnson
      艾伦·伯斯汀 Ellen Burstyn
◎简  介
  1951年美国的一个小镇上,高中生Sonny(蒂姆斯·伯特姆斯 Timothy Bottoms 饰)和好友Duane(杰夫·布里吉斯 Jeff Bridges 饰)经常带着各自的女友到电影院看电影。Sonny和他的女友Charlene并不相爱,在他们的周年纪念日分手了;而Duane则和漂亮的Jacy(斯碧尔·谢波德 Cybill Shepherd 饰)非常恩爱,虽然这段恋情并不得到Jacy父母的认同。Sonny是高中篮球队队员,一天,教练让他载着教练的妻子去诊所看病,教练的妻子Ruth在Sonny面前哭了。小镇的圣诞派对上,Jacy看见Duane和他老板的妻子十分亲密,一怒之下答应了和另一个男生Lester去参加另一个派对。而Sonny则和他教练的妻子Ruth情愫暗生,两人开始了一段不伦之恋。Sonny和Duane开着车去墨西哥旅行回来,发现镇上的一个大人物狮子Sam去世了,把他所拥有的桌球室留给了Sonny。镇上的一切,似乎都在悄悄地发生改变.....
◎获奖情况
  第44届奥斯卡金像奖 (1972)
  最佳影片(提名) Stephen J. Friedman
  最佳导演(提名) 彼得·博格丹诺维奇
  最佳男配角 本·约翰逊
  最佳男配角(提名) 杰夫·布里吉斯
  最佳女配角 克劳斯·利特曼
  最佳女配角(提名) 艾伦·伯斯汀
  最佳改编剧本(提名) 拉里·麦克穆特瑞 / 彼得·博格丹诺维奇
  最佳摄影(提名) Robert Surtees
Video
ID                                       : 1
Format                                   : AVC
Format/Info                              : Advanced Video Codec
Format profile                           : [email protected]
Format settings, CABAC                   : Yes
Format settings, ReFrames                : 4 frames
Codec ID                                 : V_MPEG4/ISO/AVC
Duration                                 : 2h 6mn
Bit rate                                 : 12.0 Mbps
Width                                    : 1 920 pixels
Height                                   : 1 040 pixels
Display aspect ratio                     : 1.85:1
Frame rate mode                          : Constant
Frame rate                               : 23.976 fps
Color space                              : YUV
Chroma subsampling                       : 4:2:0
Bit depth                                : 8 bits
Scan type                                : Progressive
Bits/(Pixel*Frame)                       : 0.251
Stream size                              : 10.4 GiB (94%)
Writing library                          : x264 core 107 r1772 c9dad9e
Encoding settings                        : cabac=1 / ref=4 / deblock=1:-3:-3 / analyse=0x3:0x113 / me=umh / subme=9 / psy=1 / psy_rd=1.10:0.15 / mixed_ref=1 / me_range=32 / chroma_me=1 / trellis=2 / 8x8dct=1 / cqm=0 / deadzone=21,11 / fast_pskip=0 / chroma_qp_offset=-2 / threads=12 / sliced_threads=0 / nr=0 / decimate=1 / interlaced=0 / constrained_intra=0 / bframes=6 / b_pyramid=2 / b_adapt=2 / b_bias=0 / direct=3 / weightb=1 / open_gop=0 / weightp=2 / keyint=250 / keyint_min=23 / scenecut=40 / intra_refresh=0 / rc_lookahead=60 / rc=2pass / mbtree=1 / bitrate=12000 / ratetol=2.0 / qcomp=0.70 / qpmin=10 / qpmax=51 / qpstep=4 / cplxblur=20.0 / qblur=0.5 / vbv_maxrate=40000 / vbv_bufsize=30000 / ip_ratio=1.40 / aq=1:0.90 / nal_hrd=none
Language                                 : English
Default                                  : Yes
Forced                                   : Yes
Audio
ID                                       : 2
Format                                   : AC-3
Format/Info                              : Audio Coding 3
Mode extension                           : CM (complete main)
Format settings, Endianness              : Big
Codec ID                                 : A_AC3
Duration                                 : 2h 6mn
Bit rate mode                            : Constant
Bit rate                                 : 448 Kbps
Channel(s)                               : 1 channel
Channel positions                        : Front: C
Sampling rate                            : 48.0 KHz
Bit depth                                : 16 bits
Compression mode                         : Lossy
Stream size                              : 406 MiB (4%)
Language                                 : English
Default                                  : Yes
Forced                                   : No
Text
ID                                       : 3
Format                                   : UTF-8
Codec ID                                 : S_TEXT/UTF8
Codec ID/Info                            : UTF-8 Plain Text
Language                                 : English
Default                                  : No
Forced                                   : No

精彩剧照


                                       

蓝光高清网提示您 点击下方附件名称 马上开始下载



温馨提示:
本站资源优先使用迅雷下载,迅雷会员下载,速度基本可以跑满宽带
如果遇到无资源或者版权问题无法下载,推荐使用115网盘离线下载(点击查看115网盘离线下载教程


  • 该资源需要您回复以后 刷新网页进行下载操作

  • 1、The.Last.Picture.Show.1971.1080p.BluRay.x264.DD1.0-FGT.torrent 56KB 已下载 0 次

加入蓝光高清网VIP会员  无限制下载本站所有资源---点此加入

资源下载、资源播放、字幕使用、无法下载等常见问题---点这里

回复

使用道具 举报

懒得打字嘛,点击右侧快捷回复
高级模式
B Color Image Link Quote Code Smilies 上传

本版积分规则

关注0

粉丝0

帖子68439

发布主题
最新电影 论坛
广告位
联系我们
点击这里联系客服

服务时间:
周一到周日8:00-23:30

  • 打开微信扫一扫
    关注公众号

  • 手机QQ扫一扫
    添加客服

Archiver手机版蓝光高清网 ( 渝ICP备18006373号-2 )|网站地图

Powered by Discuz! X3.4  © 2001-2013 Comsenz Inc.