[惊悚] 杀人房间 The.Killing.Room.2009.1080p.BluRay.x264.DTS-FGT 6.56GB

[复制链接]
蓝鸟VIP会员 永久VIP 发表于 2019-8-21 21:57:29 | 显示全部楼层 |阅读模式 打印 上一主题 下一主题

马上注册,轻松下载,海量资源,让你轻松玩转社区。

您需要 登录 才可以下载或查看,没有帐号?立即注册

x

?
◎译  名 杀人房间
◎片  名 The Killing Room
◎年  代 2009
◎国  家 美国
◎类  别 剧情/恐怖/惊悚
◎语  言 英语
◎上映日期 2009-01-16
◎IMDb评分  5.8/10 from 10,125 users
◎IMDb链接  http://www.imdb.com/title/tt1119191/
◎豆瓣评分 5.4/10 from 1,602 users
◎豆瓣链接 http://movie.douban.com/subject/3022894/
◎片  长 Germany: 93 分钟(European Film Market)
◎导  演 Jonathan Liebesman
◎主  演 Chlo? Sevigny
      Clea DuVall
      Peter Stormare
      Nick Cannon
◎简  介
  凯瑞(Clea DuVall 饰)、东尼(Shea Whigham 饰)、克莱福德(Timothy Hutton 饰)和保罗(Nick Cannon 饰)是四个素昧平生的陌生人,他们获邀参加一个测试。在填写了一份冗长而无聊的调查表后,一个自称菲利普博士(Peter Stormare 饰)的家伙出现在他们面前。菲利普收掉志愿者身上所有的物品,并声称每人都可得到250美元的报酬,不过在此之前他们要在封闭的房间内待上30个小时,进行一场淘汰赛,只有最后的胜利者才能走出房间。当众人还对此将信将疑之时,第一个死者却突然出现。剩下的三个人突然意识到,自己已经陷入一场恐怖的杀戮游戏之中。
  这是一个独立于政府之外的军事项目,而它不惜草菅人命的目的究竟是什么呢?
Video
ID                                       : 1
Format                                   : AVC
Format/Info                              : Advanced Video Codec
Format profile                           : [email protected]
Format settings, CABAC                   : Yes
Format settings, ReFrames                : 5 frames
Codec ID                                 : V_MPEG4/ISO/AVC
Duration                                 : 1h 33mn
Bit rate                                 : 8 557 Kbps
Width                                    : 1 920 pixels
Height                                   : 816 pixels
Display aspect ratio                     : 2.35:1
Frame rate mode                          : Constant
Frame rate                               : 23.976 fps
Color space                              : YUV
Chroma subsampling                       : 4:2:0
Bit depth                                : 8 bits
Scan type                                : Progressive
Bits/(Pixel*Frame)                       : 0.228
Stream size                              : 5.45 GiB (83%)
Writing library                          : x264 core 75 r1251 e553a4c
Encoding settings                        : cabac=1 / ref=5 / deblock=1:0:0 / analyse=0x3:0x113 / me=umh / subme=7 / psy=1 / psy_rd=1.0:0.0 / mixed_ref=1 / me_range=16 / chroma_me=1 / trellis=1 / 8x8dct=1 / cqm=0 / deadzone=21,11 / chroma_qp_offset=-2 / threads=6 / nr=0 / decimate=1 / mbaff=0 / bframes=3 / b_pyramid=0 / b_adapt=1 / b_bias=0 / direct=1 / wpredb=1 / keyint=250 / keyint_min=25 / scenecut=40 / rc_lookahead=40 / rc=2pass / mbtree=1 / bitrate=8557 / ratetol=1.0 / qcomp=0.60 / qpmin=10 / qpmax=51 / qpstep=4 / cplxblur=20.0 / qblur=0.5 / ip_ratio=1.40 / aq=1:1.00
Language                                 : English
Default                                  : Yes
Forced                                   : No
Audio
ID                                       : 2
Format                                   : DTS
Format/Info                              : Digital Theater Systems
Mode                                     : 16
Format settings, Endianness              : Big
Codec ID                                 : A_DTS
Duration                                 : 1h 33mn
Bit rate mode                            : Constant
Bit rate                                 : 1 509 Kbps
Channel(s)                               : 6 channels
Channel positions                        : Front: L C R, Side: L R, LFE
Sampling rate                            : 48.0 KHz
Bit depth                                : 24 bits
Compression mode                         : Lossy
Stream size                              : 1 007 MiB (15%)
Language                                 : English
Default                                  : Yes
Forced                                   : No
Menu
00:00:00.000                             : en:00:00:00.000
00:01:36.722                             : en:00:01:36.722
00:07:20.231                             : en:00:07:20.231
00:12:47.225                             : en:00:12:47.225
00:19:24.038                             : en:00:19:24.038
00:25:02.710                             : en:00:25:02.710
00:31:41.775                             : en:00:31:41.775
00:37:48.975                             : en:00:37:48.975
00:43:04.999                             : en:00:43:04.999
00:48:09.970                             : en:00:48:09.970
00:53:42.719                             : en:00:53:42.719
00:59:54.341                             : en:00:59:54.341
01:04:49.302                             : en:01:04:49.302
01:10:45.658                             : en:01:10:45.658
01:18:45.804                             : en:01:18:45.804
01:26:41.863                             : en:01:26:41.863

精彩剧照


                                       

蓝光高清网提示您 点击下方附件名称 马上开始下载



温馨提示:
本站资源优先使用迅雷下载,迅雷会员下载,速度基本可以跑满宽带
如果遇到无资源或者版权问题无法下载,推荐使用115网盘离线下载(点击查看115网盘离线下载教程


  • 该资源需要您回复以后 刷新网页进行下载操作

  • 1、The.Killing.Room.2009.1080p.BluRay.x264.DTS-FGT.torrent 66KB 已下载 0 次

加入蓝光高清网VIP会员  无限制下载本站所有资源---点此加入

资源下载、资源播放、字幕使用、无法下载等常见问题---点这里

回复

使用道具 举报

精彩评论1

selexkimo 发表于 2019-8-21 22:02:52 | 显示全部楼层
不错,支持下楼主

加入蓝光高清网VIP会员  无限制下载本站所有资源---点此加入

资源下载、资源播放、字幕使用、无法下载等常见问题---点这里

回复

使用道具 举报

懒得打字嘛,点击右侧快捷回复
高级模式
B Color Image Link Quote Code Smilies 上传

本版积分规则

关注0

粉丝0

帖子66703

发布主题
最新电影 论坛
广告位
联系我们
点击这里联系客服

服务时间:
周一到周日8:00-23:30

  • 打开微信扫一扫
    关注公众号

  • 手机QQ扫一扫
    添加客服

Archiver手机版蓝光高清网 ( 渝ICP备18006373号-2 )|网站地图

Powered by Discuz! X3.4  © 2001-2013 Comsenz Inc.