[剧情] 猎人 The.Hunter.2011.1080p.BluRay.x264.DD5.1-FGT 9.84GB

[复制链接]
蓝鸟VIP会员 永久VIP 发表于 2019-8-21 21:58:20 | 显示全部楼层 |阅读模式 打印 上一主题 下一主题

马上注册,轻松下载,海量资源,让你轻松玩转社区。

您需要 登录 才可以下载或查看,没有帐号?立即注册

x

?
◎译  名 猎人
◎片  名 The Hunter
◎年  代 2011
◎国  家 澳大利亚
◎类  别 剧情
◎语  言 英语
◎上映日期 2011-10-06(澳大利亚)
◎IMDb评分  6.8/10 from 26,795 users
◎IMDb链接  http://www.imdb.com/title/tt1703148/
◎豆瓣评分 6.7/10 from 1,139 users
◎豆瓣链接 http://movie.douban.com/subject/5028368/
◎片  长 102分钟
◎导  演 丹尼尔·奈西姆 Daniel Nettheim
◎主  演 威廉·达福 Willem Dafoe
      苏利文·斯坦普莱顿 Sullivan Stapleton
      山姆·尼尔 Sam Neill
      弗兰西丝·奥康纳 Frances O Connor
      摩根·戴维斯 Morgana Davies
      杰克·科曼 Jacek Koman
      芬恩·伍德洛克 Finn Woodlock
      卡兰·马尔韦 Callan Mulvey
      约翰·布鲁普顿 John Brumpton
      丹·威利 Dan Wyllie
      杰米·提莫尼 Jamie Timony
      丹·斯皮尔曼 Dan Spielman
◎简  介
  为研发新药,一个猎人(威廉达福饰演)受红叶医药公司委托,踏上了捕获濒临绝灭的物种塔斯马尼亚虎的旅程,寄宿在壮阔的塔斯马尼亚平原上一个男主人外出失踪半年的三口之家中。
  猎人在苦苦搜猎之余,和女主人还有两个小孩渐生情愫,并目睹了塔斯马尼亚平原严重的环保危局,揭开了男主人失踪的迷局,发现了塔斯马尼亚虎的踪迹,更由此推断出了幕后的种种利益关联,于是,受雇的猎人就此停止狩猎,开始用心在孤儿寡母身上。
  幕后的利益集团恼羞成怒,派出了新的猎手,猎人和一家三口,还有濒危的塔斯马尼亚虎将会怎样呢?
Video
ID                                       : 1
Format                                   : AVC
Format/Info                              : Advanced Video Codec
Format profile                           : [email protected]
Format settings, CABAC                   : Yes
Format settings, ReFrames                : 5 frames
Codec ID                                 : V_MPEG4/ISO/AVC
Duration                                 : 1h 44mn
Bit rate                                 : 13.1 Mbps
Width                                    : 1 920 pixels
Height                                   : 816 pixels
Display aspect ratio                     : 2.35:1
Frame rate mode                          : Constant
Frame rate                               : 24.000 fps
Color space                              : YUV
Chroma subsampling                       : 4:2:0
Bit depth                                : 8 bits
Scan type                                : Progressive
Bits/(Pixel*Frame)                       : 0.348
Stream size                              : 9.32 GiB (95%)
Writing library                          : x264 core 120 r2146 bcd41db
Encoding settings                        : cabac=1 / ref=5 / deblock=1:-3:-3 / analyse=0x3:0x133 / me=umh / subme=10 / psy=1 / psy_rd=1.00:0.00 / mixed_ref=1 / me_range=48 / chroma_me=1 / trellis=2 / 8x8dct=1 / cqm=0 / deadzone=21,11 / fast_pskip=1 / chroma_qp_offset=-2 / threads=12 / sliced_threads=0 / nr=0 / decimate=0 / interlaced=0 / bluray_compat=0 / constrained_intra=0 / bframes=6 / b_pyramid=2 / b_adapt=2 / b_bias=0 / direct=3 / weightb=1 / open_gop=0 / weightp=2 / keyint=250 / keyint_min=24 / scenecut=40 / intra_refresh=0 / rc_lookahead=60 / rc=2pass / mbtree=1 / bitrate=13081 / ratetol=1.0 / qcomp=0.60 / qpmin=0 / qpmax=69 / qpstep=4 / cplxblur=20.0 / qblur=0.5 / vbv_maxrate=50000 / vbv_bufsize=50000 / nal_hrd=none / ip_ratio=1.50 / aq=1:1.00
Language                                 : English
Default                                  : Yes
Forced                                   : No
Audio
ID                                       : 2
Format                                   : AC-3
Format/Info                              : Audio Coding 3
Mode extension                           : CM (complete main)
Format settings, Endianness              : Big
Codec ID                                 : A_AC3
Duration                                 : 1h 44mn
Bit rate mode                            : Constant
Bit rate                                 : 448 Kbps
Channel(s)                               : 6 channels
Channel positions                        : Front: L C R, Side: L R, LFE
Sampling rate                            : 48.0 KHz
Bit depth                                : 16 bits
Compression mode                         : Lossy
Stream size                              : 334 MiB (3%)
Language                                 : English
Default                                  : Yes
Forced                                   : No
Text
ID                                       : 3
Format                                   : UTF-8
Codec ID                                 : S_TEXT/UTF8
Codec ID/Info                            : UTF-8 Plain Text
Language                                 : English
Default                                  : No
Forced                                   : No

精彩剧照


                                       

蓝光高清网提示您 点击下方附件名称 马上开始下载



温馨提示:
本站资源优先使用迅雷下载,迅雷会员下载,速度基本可以跑满宽带
如果遇到无资源或者版权问题无法下载,推荐使用115网盘离线下载(点击查看115网盘离线下载教程


  • 该资源需要您回复以后 刷新网页进行下载操作

  • 1、The.Hunter.2011.1080p.BluRay.x264.DD5.1-FGT.torrent 99KB 已下载 0 次

加入蓝光高清网VIP会员  无限制下载本站所有资源---点此加入

资源下载、资源播放、字幕使用、无法下载等常见问题---点这里

回复

使用道具 举报

懒得打字嘛,点击右侧快捷回复
高级模式
B Color Image Link Quote Code Smilies 上传

本版积分规则

关注0

粉丝0

帖子68439

发布主题
最新电影 论坛
广告位
联系我们
点击这里联系客服

服务时间:
周一到周日8:00-23:30

  • 打开微信扫一扫
    关注公众号

  • 手机QQ扫一扫
    添加客服

Archiver手机版蓝光高清网 ( 渝ICP备18006373号-2 )|网站地图

Powered by Discuz! X3.4  © 2001-2013 Comsenz Inc.