[惊悚] 破坏欲 The.Broken.2008.1080p.BluRay.x264.DTS-FGT 7.94GB

[复制链接]
蓝鸟VIP会员 永久VIP 发表于 2019-8-21 21:59:12 | 显示全部楼层 |阅读模式 打印 上一主题 下一主题

马上注册,轻松下载,海量资源,让你轻松玩转社区。

您需要 登录 才可以下载或查看,没有帐号?立即注册

x


◎译  名 破坏欲
◎片  名 The Br?ken
◎年  代 2008
◎国  家 法国/英国
◎类  别 剧情/奇幻/恐怖/惊悚
◎语  言 英语
◎上映日期 2008-11-26
◎IMDb评分  5.5/10 from 8,172 users
◎IMDb链接  http://www.imdb.com/title/tt0906734/
◎豆瓣评分 6.1/10 from 1,258 users
◎豆瓣链接 http://movie.douban.com/subject/2132083/
◎片  长 93 分钟
◎导  演 Sean Ellis
◎主  演 琳娜·海蒂 Lena Headey
      理查德·詹金斯 Richard Jenkins
      Michelle Duncan
      乌尔里奇·汤姆森 Ulrich Thomsen
      梅尔维尔·珀波 Melvil Poupaud
      阿斯尔·纽曼 Asier Newman
◎简  介
  在父亲的生日宴会上,一面镜子的突然碎裂让吉娜(琳娜·海蒂 Lena Headey 饰)和众人感到了深深的不安。第二天,吉娜来到工作的医院,却被告知就在不久之前自己刚刚离开了医院。对于这一异象,吉娜只以为是同事眼花,但之后发生的事情却让她再也无法保持平静——无论是大街上正在行驶的红色越野车,还是车中所坐的女子,皆和吉娜完全相同。
  无法控制自己好奇心的吉娜尾随女子来到了一幢公寓,过后,吉娜遭遇了惨烈的车祸。为了疗伤,吉娜开始和男友斯蒂芬(梅尔维尔·珀波 Melvil Poupaud 饰)同居,她将她的所见所闻告知了男友,后者却认为她不过是脑部受到了创伤,吉娜陷入了无尽的恐惧和怀疑之中。
Video
ID                                       : 1
Format                                   : AVC
Format/Info                              : Advanced Video Codec
Format profile                           : [email protected]
Format settings, CABAC                   : Yes
Format settings, ReFrames                : 5 frames
Codec ID                                 : V_MPEG4/ISO/AVC
Duration                                 : 1h 28mn
Bit rate                                 : 11.4 Mbps
Width                                    : 1 920 pixels
Height                                   : 816 pixels
Display aspect ratio                     : 2.35:1
Frame rate mode                          : Constant
Frame rate                               : 24.000 fps
Color space                              : YUV
Chroma subsampling                       : 4:2:0
Bit depth                                : 8 bits
Scan type                                : Progressive
Bits/(Pixel*Frame)                       : 0.303
Stream size                              : 6.85 GiB (86%)
Writing library                          : x264 core 67 r1153M 7b6ce6a
Encoding settings                        : cabac=1 / ref=5 / deblock=1:-3:-3 / analyse=0x3:0x113 / me=umh / subme=9 / psy_rd=1.0:0.0 / mixed_ref=1 / me_range=32 / chroma_me=1 / trellis=2 / 8x8dct=1 / cqm=0 / deadzone=21,11 / chroma_qp_offset=-2 / threads=6 / nr=0 / decimate=1 / mbaff=0 / bframes=3 / b_pyramid=1 / b_adapt=2 / b_bias=0 / direct=3 / wpredb=1 / keyint=250 / keyint_min=25 / scenecut=40 / rc=2pass / bitrate=11401 / ratetol=1.0 / qcomp=0.60 / qpmin=10 / qpmax=51 / qpstep=4 / cplxblur=20.0 / qblur=0.5 / ip_ratio=1.40 / pb_ratio=1.30 / aq=1:0.80
Language                                 : English
Default                                  : Yes
Forced                                   : No
Audio
ID                                       : 2
Format                                   : DTS
Format/Info                              : Digital Theater Systems
Mode                                     : 16
Format settings, Endianness              : Big
Codec ID                                 : A_DTS
Duration                                 : 1h 28mn
Bit rate mode                            : Constant
Bit rate                                 : 1 509 Kbps
Channel(s)                               : 6 channels
Channel positions                        : Front: L C R, Side: L R, LFE
Sampling rate                            : 48.0 KHz
Bit depth                                : 16 bits
Compression mode                         : Lossy
Stream size                              : 950 MiB (12%)
Language                                 : English
Default                                  : Yes
Forced                                   : No
Text
ID                                       : 3
Format                                   : ASS
Codec ID                                 : S_TEXT/ASS
Codec ID/Info                            : Advanced Sub Station Alpha
Compression mode                         : Lossless
Language                                 : English
Default                                  : Yes
Forced                                   : No

精彩剧照


                                       

蓝光高清网提示您 点击下方附件名称 马上开始下载



温馨提示:
本站资源优先使用迅雷下载,迅雷会员下载,速度基本可以跑满宽带
如果遇到无资源或者版权问题无法下载,推荐使用115网盘离线下载(点击查看115网盘离线下载教程


  • 该资源需要您回复以后 刷新网页进行下载操作

  • 1、The.Broken.2008.1080p.BluRay.x264.DTS-FGT.torrent 80KB 已下载 0 次

加入蓝光高清网VIP会员  无限制下载本站所有资源---点此加入

资源下载、资源播放、字幕使用、无法下载等常见问题---点这里

回复

使用道具 举报

懒得打字嘛,点击右侧快捷回复
高级模式
B Color Image Link Quote Code Smilies 上传

本版积分规则

关注0

粉丝0

帖子66561

发布主题
最新电影 论坛
广告位
联系我们
点击这里联系客服

服务时间:
周一到周日8:00-23:30

  • 打开微信扫一扫
    关注公众号

  • 手机QQ扫一扫
    添加客服

Archiver手机版蓝光高清网 ( 渝ICP备18006373号-2 )|网站地图

Powered by Discuz! X3.4  © 2001-2013 Comsenz Inc.