[恐怖] 陌生人/陌路狂杀 The.Strangers.2008.UNRATED.1080p.BluRay.x264.DTS-FGT 6.28GB

[复制链接]
蓝鸟VIP会员 永久VIP 发表于 2019-8-21 22:00:51 | 显示全部楼层 |阅读模式 打印 上一主题 下一主题

马上注册,轻松下载,海量资源,让你轻松玩转社区。

您需要 登录 才可以下载或查看,没有帐号?立即注册

x


◎译  名 陌生人/陌路狂杀/慌邻勿近
◎片  名 The Strangers
◎年  代 2008
◎国  家 美国
◎类  别 恐怖/惊悚
◎语  言 英语
◎上映日期 2008-05-30
◎IMDb评分  6.2/10 from 83,348 users
◎IMDb链接  http://www.imdb.com/title/tt0482606/
◎豆瓣评分 5.0/10 from 3,169 users
◎豆瓣链接 http://movie.douban.com/subject/1921003/
◎片  长 86 分钟/88 分钟(unrated version)
◎导  演 布莱恩·伯蒂诺 Bryan Bertino
◎主  演 丽芙·泰勒 Liv Tyler
      斯科特·斯比德曼 Scott Speedman
      格伦·豪尔顿 Glenn Howerton
      嘉玛·沃德 Gemma Ward
      Kip Weeks
◎简  介
  刚刚参加完朋友婚礼的年轻夫妇詹姆斯(斯科特·斯比德曼 Scott Speedman 饰)和妻子克里斯汀(丽芙·泰勒 Liv Tyler 饰)酒意微醺的离开了晚宴。本已疲惫不堪的二人,却在回家的途中遭遇事故,两人不得已在陌生的环境下停车,去周边寻求救援。两人在误打误撞下,意外地进入了一座废弃的度假别墅,索性休整一晚。
  夜色渐深,黑暗袭来。詹姆斯和克里斯汀的厄运从此开始。入夜,三个戴着面具的入侵者突然出现在房子周围,向他们发起了连续袭击。面对死亡的威胁,夫妇在强烈的求生意志下,开始了殊死抗争。被困在屋内的二人,随即陷入了这场血腥暴力的生死之战。
Video
ID                                       : 1
Format                                   : AVC
Format/Info                              : Advanced Video Codec
Format profile                           : [email protected]
Format settings, CABAC                   : Yes
Format settings, ReFrames                : 5 frames
Codec ID                                 : V_MPEG4/ISO/AVC
Duration                                 : 1h 27mn
Bit rate                                 : 8 717 Kbps
Width                                    : 1 920 pixels
Height                                   : 816 pixels
Display aspect ratio                     : 2.35:1
Frame rate mode                          : Constant
Frame rate                               : 23.976 fps
Color space                              : YUV
Chroma subsampling                       : 4:2:0
Bit depth                                : 8 bits
Scan type                                : Progressive
Bits/(Pixel*Frame)                       : 0.232
Stream size                              : 5.23 GiB (83%)
Writing library                          : x264 core 65 r999M cc51047
Encoding settings                        : cabac=1 / ref=5 / deblock=1:-3:-3 / analyse=0x3:0x113 / me=umh / subme=9 / psy_rd=1.0:0.0 / mixed_ref=1 / me_range=32 / chroma_me=1 / trellis=0 / 8x8dct=1 / cqm=2 / deadzone=6,4 / chroma_qp_offset=-2 / threads=6 / nr=0 / decimate=1 / mbaff=0 / bframes=3 / b_pyramid=1 / b_adapt=2 / b_bias=0 / direct=3 / wpredb=1 / keyint=240 / keyint_min=24 / scenecut=40(pre) / rc=2pass / bitrate=8717 / ratetol=1.0 / qcomp=0.60 / qpmin=10 / qpmax=51 / qpstep=4 / cplxblur=20.0 / qblur=0.5 / ip_ratio=1.40 / pb_ratio=1.30 / aq=1:1.00
Language                                 : English
Default                                  : Yes
Forced                                   : No
Audio
ID                                       : 2
Format                                   : DTS
Format/Info                              : Digital Theater Systems
Mode                                     : 16
Format settings, Endianness              : Big
Codec ID                                 : A_DTS
Duration                                 : 1h 27mn
Bit rate mode                            : Constant
Bit rate                                 : 1 509 Kbps
Channel(s)                               : 6 channels
Channel positions                        : Front: L C R, Side: L R, LFE
Sampling rate                            : 48.0 KHz
Bit depth                                : 24 bits
Compression mode                         : Lossy
Stream size                              : 950 MiB (15%)
Language                                 : English
Default                                  : Yes
Forced                                   : No
Text
ID                                       : 3
Format                                   : UTF-8
Codec ID                                 : S_TEXT/UTF8
Codec ID/Info                            : UTF-8 Plain Text
Language                                 : English
Default                                  : No
Forced                                   : No
Menu #1
Menu #2

精彩剧照


                                       

蓝光高清网提示您 点击下方附件名称 马上开始下载



温馨提示:
本站资源优先使用迅雷下载,迅雷会员下载,速度基本可以跑满宽带
如果遇到无资源或者版权问题无法下载,推荐使用115网盘离线下载(点击查看115网盘离线下载教程


  • 该资源需要您回复以后 刷新网页进行下载操作

  • 1、The.Strangers.2008.UNRATED.1080p.BluRay.x264.DTS-FGT.torrent 63KB 已下载 0 次

加入蓝光高清网VIP会员  无限制下载本站所有资源---点此加入

资源下载、资源播放、字幕使用、无法下载等常见问题---点这里

回复

使用道具 举报

懒得打字嘛,点击右侧快捷回复
高级模式
B Color Image Link Quote Code Smilies 上传

本版积分规则

关注0

粉丝0

帖子69282

发布主题
最新电影 论坛
广告位
联系我们
点击这里联系客服

服务时间:
周一到周日8:00-23:30

  • 打开微信扫一扫
    关注公众号

  • 手机QQ扫一扫
    添加客服

Archiver手机版蓝光高清网 ( 渝ICP备18006373号-2 )|网站地图

Powered by Discuz! X3.4  © 2001-2013 Comsenz Inc.