开通会员
全站资源畅享下载
4k原盘抢先下载
免高清币下载
会员用户组特权
开通会员
上传
收藏
首页
开启左侧

冰雪奇缘番外短片/雪人往事4K.Once.Upon.a.Snowman.2020.HDR.2160p.WEB.h265-4k电影下载—0.976 GB

[复制链接]
蓝鸟 发表于 2021-1-19 10:24:52 | 显示全部楼层 |阅读模式 打印 上一主题 下一主题

雪人往事(2020年上映)

主演乔什·加德
导演Dan Abraham / Trent Correy
类型动画 奇幻 冒险 家庭 短片 
地区美国 
片长8分钟
画质4K HDR 原盘
音轨Dolby TrueHD 5.1 
评分豆瓣8.3分
电影【雪人往事】原盘信息
 

加入蓝光高清网,轻松下载最新4k资源

您需要 登录 才可以下载或查看,没有帐号?立即注册

x
4 c* d4 B: |+ D) ]) v* m6 y( |5 |7 i  J

2 `5 `& K$ w0 V+ t( ?8 @+ O简       介
, R( u! {$ @' F$ x0 G) j4 I
8 M1 i' S% ?9 G' C( i9 C: G1 d  迪士尼将推出[冰雪奇缘]衍生短片[雪人往事](Once Upon a Snowman,暂译),首款海报同时曝光。从片名与海报可以看出,这是关于雪宝的故事。该片将于10月23日登陆Disney+。, w" o; z% d& f
  V" H% S: a+ b# I1 h* l

% Q2 _$ W9 D' }7 o影片参数
! V, n7 [3 ]+ [9 E. G
冰雪奇缘番外短片/雪人往事4K.Once.Upon.a.Snowman.2020.HDR.2160p.WEB.h265-4k电影信息" H3 Y( s! ^7 D* o
Video- S- @1 D/ ~7 U' ~
ID : 1
' k+ }* y, Q" D/ q, bFormat : HEVC
( W. S5 ^, S, y2 ^( WFormat/Info : High Efficiency Video Coding
, Q' D9 g/ l) Y4 g! l6 D0 dFormat profile : Main 10@L5@High
% ]0 E4 S2 Y  `+ I+ K/ Y( P0 ^" y# fHDR format : SMPTE ST 2086, HDR10 compatible
: z# e# B) ^7 a2 a) [/ V/ L8 T6 TCodec ID : V_MPEGH/ISO/HEVC1 |9 {8 {  x" p
Duration : 7 min 35 s
/ t( y" n; |- @. j9 KBit rate : 15.3 Mb/s6 I2 |! }  y2 ]
Width : 3 840 pixels2 I" @) ~5 A4 `# i/ G
Height : 2 160 pixels
+ b% l0 }7 U+ e6 A) h8 mDisplay aspect ratio : 16:9
/ \+ S& V' v4 SFrame rate mode : Constant( s+ n) S2 X  @& J# \8 N
Frame rate : 23.976 (24000/1001) FPS
0 }3 [* T; W% FColor space : YUV' N( X0 Q9 Q' A, g7 O
Chroma subsampling : 4:2:0/ r% d& U( s% g2 r
Bit depth : 10 bits
: ~# m1 c2 d) i5 \0 J1 O) ABits/(Pixel*Frame) : 0.077
1 N5 L7 c- c6 m& q# R) }5 f1 sStream size : 830 MiB (95%)
, q, \' ^  W7 ^! cLanguage : English
( B" d6 l& L# a/ L- y  uDefault : Yes
3 v  e- m4 F- ^$ w* oForced : No
; [: H3 ]6 ]8 z: i6 vColor range : Limited6 a( g/ h' g" v0 q; a  H  M. y
Color primaries : BT.2020
( Y2 |. c4 {% |1 ~3 y0 d5 wTransfer characteristics : PQ
0 E- e. Y; c# u& ~1 pMatrix coefficients : BT.2020 non-constant" c$ b7 T' s; l" r" Q8 H- E
Mastering display color primaries : Display P37 x! B9 ]1 w* D  w: {3 u( S
Mastering display luminance : min: 0.0000 cd/m2, max: 1000 cd/m2
) J" E9 G- t) _2 Y: |( V' E
* B1 `; E$ P4 S6 v5 C' tAudio
3 K' k" H; `  fID : 2& g2 z6 {# z! V9 s, G8 Y4 {4 m
Format : E-AC-3 JOC2 k. `9 |5 }9 R. k( }7 t
Format/Info : Enhanced AC-3 with Joint Object Coding
5 q0 w3 y, m8 V" m6 }5 Y1 D4 p: z$ |Commercial name : Dolby Digital Plus with Dolby Atmos
, l& b/ H% H* ~, A" s. ?* fCodec ID : A_EAC3
9 \7 T2 E7 q( A9 o$ B( \' XDuration : 7 min 35 s& _; z9 J9 T4 s7 ^
Bit rate mode : Constant
/ y  Y7 E* }4 F/ P4 sBit rate : 768 kb/s
" h# q. ~, H1 U! p7 Y5 j, rChannel(s) : 6 channels
8 v/ x# s1 Y, ^& dChannel layout : L R C LFE Ls Rs7 j6 k0 |, g0 V
Sampling rate : 48.0 kHz2 N9 K; e9 S# m4 E1 m
Frame rate : 31.250 FPS (1536 SPF)( p& r/ F* s. w
Compression mode : Lossy
9 m) G- e: S6 nStream size : 41.7 MiB (5%)
" ?+ {# |3 E1 |3 ^$ LLanguage : English+ d! M# f8 n; O8 i- ^: i
Service kind : Complete Main
3 X0 `- v( q) c  U" [; PDefault : Yes
/ N1 |$ A7 l! o* M9 vForced : No
1 _2 e1 S0 q1 l" GComplexity index : 16
+ C: D7 K; d8 g* [- \3 h9 iNumber of dynamic objects : 15& X; I. l2 K5 A% K; L, q/ o7 d
Bed channel count : 1 channel
6 j2 [( O& U- c4 r. jBed channel configuration : LFE
% p# X8 S; Z* ]1 w: ]; `

; F$ Y) h- @6 m蓝光高清网提示您  点击下方附件名称  马上开始下载
7 C3 l0 u1 U* e# R! `
1 t; A! |' {8 g
" p6 I' Q& E' n* f+ _  n5 h4 {
冰雪奇缘番外短片/雪人往事4K.Once.Upon.a.Snowman.2020.HDR.2160p.WEB.h265-4K电影短片下载
; s3 s& _3 {) m* v+ y" E* T; z7 L* X$ V  |
雪人往事4K.Once.Upon.a.Snowman.2020.HDR.2160p.WEB.h265【4K HDR 0.97GB】
4 |7 R5 T3 s9 w) G3 u 雪人往事4K.Once.Upon.a.Snowman.2020.HDR.2160p.WEB.h265-KOGi.torrent (文件大小:19.77 KB)
. T5 t# M$ W4 P' {! G

+ K6 F7 R" }& c, E9 H( Q
: Z6 I; |5 ~4 d! N+ w1 O4 y4 n% Z; X
加入蓝光高清网VIP会员  无限制下载本站所有资源---点这里

资源下载、资源播放、字幕使用、无法下载等常见问题---点这里
回复

使用道具 举报

 

精彩评论2

正序浏览
爱过了 发表于 2021-1-19 17:33:15 | 显示全部楼层
 
6 T5 @3 k7 d8 k0 ]6 ]
非常感谢蓝光高清网给大家的享乐4k,祝蓝光高清网越办越好!
回复

使用道具 举报

 
yuzhong000 发表于 2021-1-21 01:30:04 | 显示全部楼层
 
谢谢楼主分享
回复

使用道具 举报

 
您需要登录后才可以回帖 登录 | 立即注册

本版积分规则

0关注

2粉丝

93704帖子

  • 版块推荐
  • 百宝箱

电影推荐

更多+

热门电影

更多+

下载APP 签到更便捷

官方微信

手机APP

蓝光高清网

专注4k电影、4k视频、VR视频、高清电影、蓝光原盘资源

本站内容部分由用户自主分享和转载自互联网,转载目的在于传递更多信息,并不代表本网赞同其观点和对其真实性负责。

如有侵权、违反国家法律政策行为,请联系我们,我们会第一时间及时清除和处理!

举报反馈邮箱:lanniao@1080pro.net

Copyright   ©2019-2020  蓝光高清网    |网站地图