开通会员
全站资源畅享下载
4k原盘抢先下载
免高清币下载
会员用户组特权
开通会员
上传
收藏
首页
开启左侧

越狱协议 4k Jailbreak.Pact.2020.SPANISH.2160p.AMZN.WEB-DL.x265.8bit.SDR.DDP5.1.电影下载—6.34 GB

[复制链接]
蓝鸟 发表于 2021-1-19 10:36:32 | 显示全部楼层 |阅读模式 打印 上一主题 下一主题

越狱协议(2020年上映)

主演本杰明·维库纳 / 安帕罗·诺格拉 / 尤西比奥·阿瑞纳斯 / 帕特里西奥·孔特雷拉斯 / 弗朗西斯卡·加维兰
导演大卫·阿尔巴拉
类型动作 剧情 惊悚 
地区其他 
片长138分钟
画质4K SDR 原盘
音轨 
评分豆瓣6.9分
电影【越狱协议】原盘信息
 

加入蓝光高清网,轻松下载最新4k资源

您需要 登录 才可以下载或查看,没有帐号?立即注册

x

* O2 U- `5 B7 v% ?
% h  \0 [" ]4 I1 H1 v9 k5 G
, z, }% j6 B" V/ R& z
简       介
" \% }8 S6 i2 i
5 F" _  P: K+ [  1990年1月29日晚上,智利民主过渡时期开始前不久,数十名政治犯从圣地亚哥的监狱中逃脱,24名激进分子途经曼努埃尔·罗德里格斯爱国阵线时,花了18个月的时间挖一个隧道。他们用勺子,叉子和一把螺丝刀,足足挖了80多米长,并将55吨泥垢藏在监狱中。 无论是附近牢房里的普通囚犯,还是每天看守监狱的狱警,都没有发现这49名囚犯的计划——这是智利犯罪史上最令人惊讶和壮观的越狱事件之一。
4 h, q/ L' P( n( h
( G+ b- E- F2 W) v6 v7 h5 ]; ?( j& z
9 V9 \% Y% E$ \. q9 \
影片参数
: M- |4 b5 v7 c
Jailbreak Pact / Tunnel 49 / Túnel 49/越狱协议4k Jailbreak.Pact.2020.SPANISH.2160p.AMZN.WEB-DL.x265.8bit.SDR.DDP5.1.电影信息
. o* C$ r' ~* {* D: f7 fVideo! @0 o/ S) z5 M0 E/ `4 p' J
ID : 1
9 q; o$ U) |( O) _+ F# OFormat : HEVC. ^* A& V* S: n5 j" O
Format/Info : High Efficiency Video Coding
# A: n# |/ E- H: VFormat profile : Main@L5@Main& d6 y6 M" V5 t: `/ ~
Codec ID : V_MPEGH/ISO/HEVC8 q+ h' I$ ^' X! _* w6 f  h
Duration : 2 h 17 min$ L. `" `; p& _
Bit rate : 5 943 kb/s
: I, }: ?- l2 ZWidth : 3 840 pixels- k' K% s( @' s( b
Height : 1 600 pixels
/ L4 S$ A; r8 Q1 {Display aspect ratio : 2.40:1( {; p* ]0 o& F6 f( X, b
Frame rate mode : Constant# K$ M- Y5 b& h( l" d% }* J
Frame rate : 23.976 (24000/1001) FPS
0 n4 U1 k3 i& E& ?$ Z% MStandard : NTSC
' K' O. V+ l  c& Q1 MColor space : YUV; r" ?1 o7 s6 M  y: ?
Chroma subsampling : 4:2:0
3 C5 j7 I) N8 K5 c* OBit depth : 8 bits
+ `$ {( n6 N+ f7 ABits/(Pixel*Frame) : 0.040/ A: c- b% T9 p/ f9 T6 w, S
Stream size : 5.72 GiB (90%)7 A3 t3 M% p) L7 H; B3 Y9 J
Writing library : x265 2.9_elemental+1-9e0607aa5b6f:[Linux][GCC 4.8.5][64 bit] 8bit+10bit+12bit
# x6 g0 N5 @( G; y# cEncoding settings : cpuid=1111039 / frame-threads=2 / wpp / no-pmode / no-pme / psnr / ssim / log-level=2 / csv / csv-log-level=2 / input-csp=1 / input-res=3840x1600 / interlace=0 / total-frames=0 / level-idc=50 / high-tier=1 / uhd-bd=0 / ref=5 / no-allow-non-conformance / no-repeat-headers / annexb / no-aud / no-hrd / info / hash=0 / no-temporal-layers / no-open-gop / min-keyint=61 / keyint=120 / gop-lookahead=0 / bframes=8 / b-adapt=2 / b-pyramid / bframe-bias=0 / rc-lookahead=120 / lookahead-slices=4 / scenecut=0 / radl=0 / no-intra-refresh / ctu=64 / min-cu-size=8 / rect / amp / max-tu-size=32 / tu-inter-depth=4 / tu-intra-depth=4 / limit-tu=4 / rdoq-level=2 / dynamic-rd=0.00 / no-ssim-rd / signhide / tskip / nr-intra=100 / nr-inter=600 / no-constrained-intra / strong-intra-smoothing / max-merge=3 / limit-refs=3 / limit-modes / me=3 / subme=3 / merange=57 / temporal-mvp / weightp / weightb / no-analyze-src-pics / deblock=0:0 / no-sao / no-sao-non-deblock / rd=4 / no-early-skip / no-rskip / no-fast-intra / tskip-fast / no-cu-lossless / b-intra / no-splitrd-skip / rdpenalty=0 / psy-rd=4.00 / psy-rdoq=10.00 / no-rd-refine / no-lossless / cbqpoffs=0 / crqpoffs=0 / rc=crf / crf=25.0 / qcomp=0.60 / qpstep=1 / stats-write=0 / stats-read=0 / vbv-maxrate=15000 / vbv-bufsize=20000 / vbv-init=0.9 / crf-max=0.0 / crf-min=0.0 / ipratio=1.10 / pbratio=1.00 / aq-mode=0 / aq-strength=1.50 / no-cutree / zone-count=0 / no-strict-cbr / qg-size=32 / rc-grain / qpmax=69 / qpmin=0 / const-vbv / sar=1 / overscan=0 / videoformat=2 / range=0 / colorprim=1 / transfer=1 / colormatrix=1 / chromaloc=0 / display-window=0 / max-cll=0,0 / min-luma=0 / max-luma=255 / log2-max-poc-lsb=8 / vui-timing-info / vui-hrd-info / slices=1 / opt-qp-pps / no-opt-ref-list-length-pps / no-multi-pass-opt-rps / scenecut-bias=0.05 / no-opt-cu-delta-qp / no-aq-motion / no-hdr / no-hdr-opt / no-dhdr10-opt / no-idr-recovery-sei / analysis-reuse-level=5 / scale-factor=0 / refine-intra=0 / refine-inter=0 / refine-mv=0 / no-limit-sao / ctu-info=0 / no-lowpass-dct / refine-mv-type=0 / copy-pic=1 / max-ausize-factor=1.0 / no-dynamic-refine / no-single-sei0 ~4 l" t* I/ u  y
Default : Yes
7 Q( h  \$ [& xForced : No9 ]: \- W. e# T  p
Color range : Limited
3 _* x' S$ ]7 L! @% _2 tColor primaries : BT.7094 \- A+ X5 G4 Z$ n2 A0 V' J# l
Transfer characteristics : BT.709# o; M) V3 L7 O9 a; T' J
Matrix coefficients : BT.709
/ }0 {; @' T% X3 ?* `! F+ l' u9 Y( e; Z+ B* O6 s- Q
2 z3 w/ K/ M3 z
Audio
! T; U, S! K. b" o7 Z* rID : 2
8 M# S. V+ j, S; B: b! W! E2 ZFormat : E-AC-3
+ _# g8 c: d9 M9 A, Z6 d+ k% ~Format/Info : Enhanced AC-3
- L$ P$ H7 ]7 h2 _6 E; _, {1 S) `0 bCommercial name : Dolby Digital Plus
1 b) P, |5 U1 m9 y8 U& WCodec ID : A_EAC3
' R6 z. _  w# C1 `Duration : 2 h 17 min0 v3 W& U0 ?- ?. Q  P
Bit rate mode : Constant
/ d: s/ y& O6 N$ m. D- ABit rate : 640 kb/s" q7 d! w2 J7 [* c
Channel(s) : 6 channels. R6 @8 H4 J" a* Q" y+ ~+ ?! T" W, _/ T
Channel layout : L R C LFE Ls Rs
- T- r1 L+ e1 e% w! f7 sSampling rate : 48.0 kHz
- w  |7 v# B! rFrame rate : 31.250 FPS (1536 SPF)
2 @' \  }/ c5 d0 z! B( p* _1 ZCompression mode : Lossy
% k, t+ m0 J7 z/ UStream size : 631 MiB (10%)5 f- v( M" d7 ^: M# s3 J& Q
Title : DDP 5.16 J5 J3 f8 D' @8 R+ Z0 _. n
Language : Spanish* }# K# }. F2 y$ J  g
Service kind : Complete Main
1 n, K3 v# ]0 iDefault : No$ L: d. Y( j4 L2 A1 W3 f: F) m
Forced : No; {* m- k6 m# q7 v
; E, i' A5 x+ I2 u; f, m3 B) U
) q6 a" D  V2 n; d
Text #1$ f4 X3 ]# X9 d) a
ID : 3
) K1 C& ?5 o6 G( k% nFormat : UTF-8% ?" L+ q# m: P: r1 F- t
Codec ID : S_TEXT/UTF8  e: u0 ?* V1 p% D9 F0 I
Codec ID/Info : UTF-8 Plain Text
3 S- O/ n. {$ _6 DDuration : 2 h 11 min
2 A7 t* _6 z" u+ iBit rate : 43 b/s9 Y1 j6 N0 b5 V, u( c8 ^
Count of elements : 1393- p; Q0 P' t& J1 m, f7 A* \9 y  a* u  [
Stream size : 42.0 KiB (0%)2 p. b/ W- ^) Y+ d# G
Language : English# ]5 {& G. Q. A: g
Default : Yes+ _4 p0 h9 b& k  n( {! b
Forced : No
' _7 T7 L2 b. `3 ~. C* a5 ^% t- W3 j+ K6 T2 X

' c  o9 y; B7 b% mText #2
5 {6 Z. `; K, u. PID : 47 O3 g! h/ k7 N4 x7 e5 n. Y/ H
Format : UTF-8
- C& Q3 o( {$ t4 [" jCodec ID : S_TEXT/UTF8' C6 T( [: ?4 ^/ S' Q
Codec ID/Info : UTF-8 Plain Text
+ D- P# J8 z" ^3 [( J, rDuration : 2 h 13 min
3 k+ ~' p* K- e% sBit rate : 56 b/s
6 J# ^& t" Z# j- L3 w( DCount of elements : 15363 e2 x, y& Y& D8 r& d+ ^) F
Stream size : 55.0 KiB (0%)
- X" a# C( P- M& J) SLanguage : Spanish, Y1 Y' i# n0 o' m6 O
Default : No
( H& t* W, m4 L9 v  A  J1 q- DForced : No
4 C, v; B/ g- t+ ~
3 f, J5 [0 y& y; O% N6 |+ e
蓝光高清网提示您  点击下方附件名称  马上开始下载% q7 R" ]3 d# B5 |+ ]% C

8 s6 l$ T+ J% {2 a$ h3 y6 A: c( HJailbreak Pact / Tunnel 49 / Túnel 49/越狱协议4k Jailbreak.Pact.2020.SPANISH.2160p.AMZN.WEB-DL.x265.8bit.SDR.DDP5.1.电影下载3 Z2 P5 P  R3 R7 K: \8 E4 {
/ P$ T. Q& Z% B% R9 `6 ^! `) u
越狱协议4k Jailbreak.Pact.2020.SPANISH.2160p.AMZN.WEB-DL.x265.8bit.SDR.DDP5.1.【6.34 GB】
2 C# {3 E$ T  Y! [( N 越狱协议4k Jailbreak.Pact.2020.SPANISH.2160p.AMZN.WEB-DL.x265.8bit.SDR.DD.torrent (文件大小:32.27 KB)

; `6 s9 V+ E) o8 D5 a0 {
  R2 W, `2 V* J: W! p+ ^  j
越狱协议中文字幕下载' S& ]2 ]" C' m* w2 D4 F
越狱协议.Jailbreak.Pact.2020.720p.WEBRip.x264.AAC.srt (文件大小:96.7 KB)

2 T) @$ Z/ {2 r% k

1 _7 q0 B" `$ A1 t. A
加入蓝光高清网VIP会员  无限制下载本站所有资源---点这里

资源下载、资源播放、字幕使用、无法下载等常见问题---点这里
回复

使用道具 举报

 

精彩评论4

正序浏览
刘家大少 发表于 2021-1-19 16:58:17 | 显示全部楼层
 
# _) Z# y0 r( P( T8 b" s5 f
非常感谢蓝光高清网给大家的享乐4k,祝蓝光高清网越办越好!
回复

使用道具 举报

 
feiyue 发表于 2021-1-19 22:11:50 | 显示全部楼层
 

7 W) A4 v2 k3 ?+ E) P7 F" c5 y! e感谢蓝光高清网提供的优质资源,希望网站越办越好。
回复

使用道具 举报

 
小蜻蜓 发表于 2021-1-20 20:12:01 | 显示全部楼层
 
这个昨天看过了,非常的不错!!!
回复

使用道具 举报

 
deliwanger 发表于 2021-1-24 11:24:59 | 显示全部楼层
 
谢谢分享,字幕是英文的。
回复

使用道具 举报

 
您需要登录后才可以回帖 登录 | 立即注册

本版积分规则

0关注

2粉丝

93698帖子

  • 版块推荐
  • 百宝箱

电影推荐

更多+

热门电影

更多+

下载APP 签到更便捷

官方微信

手机APP

蓝光高清网

专注4k电影、4k视频、VR视频、高清电影、蓝光原盘资源

本站内容部分由用户自主分享和转载自互联网,转载目的在于传递更多信息,并不代表本网赞同其观点和对其真实性负责。

如有侵权、违反国家法律政策行为,请联系我们,我们会第一时间及时清除和处理!

举报反馈邮箱:lanniao@1080pro.net

Copyright   ©2019-2020  蓝光高清网    |网站地图