[喜剧] 毕业生生存指南/毕业之后 Post.Grad.2009.1080p.BluRay.x264.DD5.1-FGT 7.51GB

[复制链接]
蓝鸟VIP会员 永久VIP 发表于 2019-8-21 22:01:43 | 显示全部楼层 |阅读模式 打印 上一主题 下一主题

马上注册,轻松下载,海量资源,让你轻松玩转社区。

您需要 登录 才可以下载或查看,没有帐号?立即注册

x


◎译  名 毕业生生存指南/毕业之后
◎片  名 Post Grad
◎年  代 2009
◎国  家 美国
◎类  别 喜剧
◎语  言 英语
◎上映日期 2009-08-21
◎IMDb评分  5.3/10 from 10,533 users
◎IMDb链接  http://www.imdb.com/title/tt1142433/
◎豆瓣评分 6.3/10 from 10,585 users
◎豆瓣链接 http://movie.douban.com/subject/3017896/
◎片  长 USA: 88 分钟/Argentina: 88 分钟/USA: 88 分钟(approx)
◎导  演 Vicky Jenson
◎主  演 阿丽克西斯·布莱德尔 Alexis Bledel
      卡罗尔·博内特 Carol Burnett
      罗德里格·桑托罗 Rodrigo Santoro
      扎克·吉尔福德 Zach Gilford
      简·林奇 Jane Lynch
◎简  介
  美丽大学生瑞登·梅比(阿里克西丝·布莱德尔 Alexis Bledel 饰)即将迎来毕业的那一天,她乐观向上,学业优秀,从小就对人生作出理性而系统的规划。毕业后她决定进入当地最棒的出版社哈伯曼 布朗宁,再于几年后发表一部个人小说。憧憬固然美好,但现实却无比残酷。瑞登的大学同学,同时也是她学业上最强劲的竞争对手杰西卡?巴登(凯瑟琳·雷特曼 Catherine Reitman 饰)成功得到那家出版社的工作,失意的瑞登只好返回家乡。即使降低了标准,求职之路也充满艰辛。与此同时,瑞登多少有些脱线也让她烦恼不已。在这一过程中,青梅竹马的好友亚当(扎克·吉尔福德 Zach Gilford 饰)始终陪在她的身边,而瑞登似乎又对帮助过自己的邻居有了别样的情感……
Video
ID                                       : 1
Format                                   : AVC
Format/Info                              : Advanced Video Codec
Format profile                           : [email protected]
Format settings, CABAC                   : Yes
Format settings, ReFrames                : 4 frames
Codec ID                                 : V_MPEG4/ISO/AVC
Duration                                 : 1h 28mn
Bit rate                                 : 11.5 Mbps
Width                                    : 1 920 pixels
Height                                   : 1 040 pixels
Display aspect ratio                     : 1.85:1
Frame rate mode                          : Constant
Frame rate                               : 23.976 fps
Color space                              : YUV
Chroma subsampling                       : 4:2:0
Bit depth                                : 8 bits
Scan type                                : Progressive
Bits/(Pixel*Frame)                       : 0.240
Stream size                              : 6.97 GiB (93%)
Writing library                          : x264 core 140 r2377 1ca7bb9
Encoding settings                        : cabac=1 / ref=4 / deblock=1:-3:-2 / analyse=0x3:0x133 / me=umh / subme=11 / psy=1 / psy_rd=1.00:0.00 / mixed_ref=1 / me_range=32 / chroma_me=1 / trellis=2 / 8x8dct=1 / cqm=0 / deadzone=21,11 / fast_pskip=0 / chroma_qp_offset=-2 / threads=12 / lookahead_threads=1 / sliced_threads=0 / nr=0 / decimate=1 / interlaced=0 / bluray_compat=0 / constrained_intra=0 / bframes=5 / b_pyramid=2 / b_adapt=2 / b_bias=0 / direct=3 / weightb=1 / open_gop=0 / weightp=2 / keyint=240 / keyint_min=23 / scenecut=40 / intra_refresh=0 / rc=2pass / mbtree=0 / bitrate=11514 / ratetol=2.0 / qcomp=0.60 / qpmin=0 / qpmax=69 / qpstep=4 / cplxblur=20.0 / qblur=0.5 / ip_ratio=1.40 / pb_ratio=1.30 / aq=1:0.90
Language                                 : English
Default                                  : Yes
Forced                                   : No
Audio
ID                                       : 2
Format                                   : AC-3
Format/Info                              : Audio Coding 3
Mode extension                           : CM (complete main)
Format settings, Endianness              : Big
Codec ID                                 : A_AC3
Duration                                 : 1h 28mn
Bit rate mode                            : Constant
Bit rate                                 : 640 Kbps
Channel(s)                               : 6 channels
Channel positions                        : Front: L C R, Side: L R, LFE
Sampling rate                            : 48.0 KHz
Bit depth                                : 16 bits
Compression mode                         : Lossy
Stream size                              : 406 MiB (5%)
Language                                 : English
Default                                  : Yes
Forced                                   : No
Text
ID                                       : 3
Format                                   : UTF-8
Codec ID                                 : S_TEXT/UTF8
Codec ID/Info                            : UTF-8 Plain Text
Language                                 : English
Default                                  : No
Forced                                   : No
Menu
00:00:00.000                             : :Chapter 01
00:02:56.634                             : :Chapter 02
00:05:51.392                             : :Chapter 03
00:09:37.159                             : :Chapter 04
00:12:45.222                             : :Chapter 05
00:15:52.785                             : :Chapter 06
00:18:47.376                             : :Chapter 07
00:20:50.123                             : :Chapter 08
00:23:32.828                             : :Chapter 09
00:26:39.222                             : :Chapter 10
00:31:33.099                             : :Chapter 11
00:34:32.111                             : :Chapter 12
00:40:18.207                             : :Chapter 13
00:46:51.766                             : :Chapter 14
00:49:03.398                             : :Chapter 15
00:51:45.936                             : :Chapter 16
00:58:10.111                             : :Chapter 17
01:03:47.573                             : :Chapter 18
01:08:16.341                             : :Chapter 19
01:13:36.245                             : :Chapter 20
01:17:43.783                             : :Chapter 21
01:20:17.062                             : :Chapter 22
01:22:08.881                             : :Chapter 23
01:24:14.424                             : :Chapter 24

精彩剧照


                                       

蓝光高清网提示您 点击下方附件名称 马上开始下载



温馨提示:
本站资源优先使用迅雷下载,迅雷会员下载,速度基本可以跑满宽带
如果遇到无资源或者版权问题无法下载,推荐使用115网盘离线下载(点击查看115网盘离线下载教程


  • 该资源需要您回复以后 刷新网页进行下载操作

  • 1、Post.Grad.2009.1080p.BluRay.x264.DD5.1-FGT.torrent 76KB 已下载 0 次

加入蓝光高清网VIP会员  无限制下载本站所有资源---点此加入

资源下载、资源播放、字幕使用、无法下载等常见问题---点这里

回复

使用道具 举报

懒得打字嘛,点击右侧快捷回复
高级模式
B Color Image Link Quote Code Smilies 上传

本版积分规则

关注0

粉丝0

帖子69429

发布主题
最新电影 论坛
广告位
联系我们
点击这里联系客服

服务时间:
周一到周日8:00-23:30

  • 打开微信扫一扫
    关注公众号

  • 手机QQ扫一扫
    添加客服

Archiver手机版蓝光高清网 ( 渝ICP备18006373号-2 )|网站地图

Powered by Discuz! X3.4  © 2001-2013 Comsenz Inc.