[惊悚] 禁闭岛/不赦岛/隔离岛/孤岛疑云Shutter.Island.2010.1080p.BluRay.DTS.x264-LTT 7.55GB

[复制链接]
蓝鸟VIP会员 永久VIP 发表于 2019-8-21 22:06:07 | 显示全部楼层 |阅读模式 打印 上一主题 下一主题

马上注册,轻松下载,海量资源,让你轻松玩转社区。

您需要 登录 才可以下载或查看,没有帐号?立即注册

x


◎译  名 禁闭岛/不赦岛(港)/隔离岛(台)/孤岛疑云/荒岛追凶/孤岛恐慌/关门岛/孤岛/艾什克里夫
◎片  名 Shutter Island
◎年  代 2010
◎国  家 美国
◎类  别 剧情/悬疑/惊悚
◎语  言 英语/德语
◎上映日期 2010-02-13(柏林电影节)/2010-02-19(美国)
◎IMDb评分  8.1/10 from 646,645 users
◎IMDb链接  http://www.imdb.com/title/tt1130884/
◎豆瓣评分 8.5/10 from 249,438 users
◎豆瓣链接 http://movie.douban.com/subject/2334904/
◎片  长 138 分钟
◎导  演 马丁·斯科塞斯 Martin Scorsese
◎主  演 莱昂纳多·迪卡普里奥 Leonardo DiCaprio
      马克·鲁弗洛 Mark Ruffalo
      米歇尔·威廉姆斯 Michelle Williams
      派翠西娅·克拉克森 Patricia Clarkson
      马克斯·冯·叙多 Max von Sydow
      艾米莉·莫迪默 Emily Mortimer
      本·金斯利 Ben Kingsley
◎简  介
  本片根据美国小说家丹尼斯·勒翰(Dennis Lehane)的同名小说改编。 1954年,联邦警官泰迪(莱昂纳多·迪卡普里奥 Leonardo DiCaprio 饰)和搭档查克(马克·鲁弗洛 Mark Ruffalo 饰)乘船来到波士顿附近的禁闭岛精神病犯监狱调查一桩离奇失踪案。手刃亲生骨肉的女犯蕾切尔(艾米莉·莫迪默 Emily Mortimer 饰)从戒备森严的牢室神秘逃脱,藏匿于孤岛深处。泰迪怀疑监狱的主治精神病医师约翰·考利(本·金斯利 Ben Kingsley 饰)有意隐瞒内情,并向查克透露他上岛的真实目的其实是寻找当年纵火烧死他妻子德洛丽丝(米歇尔·威廉姆斯 Michelle Williams 饰)的管理员,并揭露美国政府利用精神病犯人进行人体科学实验的罪行。但随着调查的逐渐深入,真相却变得越来越扑朔迷离……
◎获奖情况
  第15届圣地亚哥影评人协会奖 (2010)
  最佳改编剧本(提名) 莱塔·卡罗格里迪斯
  最佳摄影(提名) 罗伯特·理查森
  最佳艺术指导 丹提·费瑞提
  第23届芝加哥影评人协会奖 (2010)
  最佳摄影(提名) 罗伯特·理查森
  第10届凤凰城影评人协会奖 (2010)
  最佳剪辑(提名) 塞尔玛·斯昆梅克
  十佳影片
  第12届美国青少年选择奖 (2010)
  最佳恐怖/惊悚电影(提名)
  最佳恐怖/惊悚电影男演员 莱昂纳多·迪卡普里奥
  最佳恐怖/惊悚电影女演员(提名) 米歇尔·威廉姆斯
  第1届豆瓣电影鑫像奖 (2011)
  鑫豆单元 最佳男演员(外语) 莱昂纳多·迪卡普里奥
Shutter.Island.2010.1080p.BluRay.mkv
************************************
TiTLE......  Shutter Island
YEAR.......  2010
GENRE......  Drama | Mystery | Thriller
iMDB RATE..  User Rating: 8.1/10 (67,770 votes)
iMDB URL...  http://www.imdb.com/title/tt1130884/
*************************************************
Video
Duration                         : 2h 18mn
Overall bit rate                 : 7 832 Kbps
Width                            : 1 920 pixels
Height                           : 816 pixels
Display aspect ratio             : 2.35:1
Frame rate                       : 23.976 fps
Stream size                      : 5.94 GiB (79%)
Audio
Format                           : DTS
Bit rate                         : 1 510 Kbps
Channel(s)                       : 6 channels
Channel positions                : Front: L C R, Surround: L R, LFE
Sampling rate                    : 48.0 KHz
Stream size                      : 1.46 GiB (19%)
Language                         : English
Subtitles: English, French
**************************
                                       

蓝光高清网提示您 点击下方附件名称 马上开始下载



温馨提示:
本站资源优先使用迅雷下载,迅雷会员下载,速度基本可以跑满宽带
如果遇到无资源或者版权问题无法下载,推荐使用115网盘离线下载(点击查看115网盘离线下载教程


  • 该资源需要您回复以后 刷新网页进行下载操作

  • 1、Shutter.Island.2010.1080p.BluRay.DTS.x264-LTT.torrent 39KB 已下载 0 次

加入蓝光高清网VIP会员  无限制下载本站所有资源---点此加入

资源下载、资源播放、字幕使用、无法下载等常见问题---点这里

回复

使用道具 举报

精彩评论2

qazwsxlover 发表于 2019-9-2 19:45:55 | 显示全部楼层

蓝光高清网是个好地方

加入蓝光高清网VIP会员  无限制下载本站所有资源---点此加入

资源下载、资源播放、字幕使用、无法下载等常见问题---点这里

回复

使用道具 举报

qazwsxlover 发表于 2019-9-2 19:47:18 | 显示全部楼层

找了好久 终于找到了  谢谢分享

加入蓝光高清网VIP会员  无限制下载本站所有资源---点此加入

资源下载、资源播放、字幕使用、无法下载等常见问题---点这里

回复

使用道具 举报

懒得打字嘛,点击右侧快捷回复
高级模式
B Color Image Link Quote Code Smilies 上传

本版积分规则

关注0

粉丝0

帖子68004

发布主题
最新电影 论坛
广告位
联系我们
点击这里联系客服

服务时间:
周一到周日8:00-23:30

  • 打开微信扫一扫
    关注公众号

  • 手机QQ扫一扫
    添加客服

Archiver手机版蓝光高清网 ( 渝ICP备18006373号-2 )|网站地图

Powered by Discuz! X3.4  © 2001-2013 Comsenz Inc.