[剧情] 马诺莱特 A.Matadors.Mistress.2007.1080p.BluRay.x264.DD5.1-FGT 7.29GB

[复制链接]
蓝鸟VIP会员 永久VIP 发表于 2019-8-21 22:31:06 | 显示全部楼层 |阅读模式 打印 上一主题 下一主题

马上注册,轻松下载,海量资源,让你轻松玩转社区。

您需要 登录 才可以下载或查看,没有帐号?立即注册

x


◎译  名 马诺莱特
◎片  名 Manolete
◎年  代 2008
◎国  家 美国/法国/英国/西班牙/德国
◎类  别 剧情/爱情
◎语  言 英语/西班牙语
◎上映日期 2008-09-06(多伦多电影节)/2012-08-24(西班牙)
◎IMDb评分  5.6/10 from 1,946 users
◎IMDb链接  http://www.imdb.com/title/tt0491046/
◎豆瓣评分 7.4/10 from 399 users
◎豆瓣链接 http://movie.douban.com/subject/1827041/
◎片  长 92 分钟/Germany: 115 分钟(European Film Market)
◎导  演 门诺·迈依杰斯 Menno Meyjes
◎主  演 艾德里安·布洛迪 Adrien Brody
      佩妮洛普·克鲁兹 Penélope Cruz
      Nacho Aldeguer
◎简  介
  The film starts in the trip from Sevilla to Linares, stopping in Córdoba for see his mother, on the day of his death in the bullring. M eanwhile, he will be remembering some passages of his life.
  本片中布罗迪将扮演具有传奇色彩的西班牙斗牛士曼纽尔·罗德里格斯·桑切斯;而克鲁兹则饰演他的爱人——女演员卢普·斯诺。
  故事发生在上个世纪40年代的西班牙。当时,西班牙最著名的斗牛士罗德里格斯·桑切斯钟情于美丽的女演员斯诺,他们之间的爱情也充满了只有斗牛士才拥有的火一般的 热情。然而,这个浪漫的爱情故事却以一场悲剧而告终,在1947年罗德里格斯·桑切斯30岁的时候,他被牛抵死在了斗牛场上……
Video
ID                                       : 1
Format                                   : AVC
Format/Info                              : Advanced Video Codec
Format profile                           : [email protected]
Format settings, CABAC                   : Yes
Format settings, ReFrames                : 4 frames
Codec ID                                 : V_MPEG4/ISO/AVC
Duration                                 : 1h 31mn
Bit rate                                 : 10.9 Mbps
Width                                    : 1 920 pixels
Height                                   : 816 pixels
Display aspect ratio                     : 2.35:1
Frame rate mode                          : Constant
Frame rate                               : 24.000 fps
Color space                              : YUV
Chroma subsampling                       : 4:2:0
Bit depth                                : 8 bits
Scan type                                : Progressive
Bits/(Pixel*Frame)                       : 0.291
Stream size                              : 6.86 GiB (94%)
Writing library                          : x264 core 92 r1510 33d382a
Encoding settings                        : cabac=1 / ref=3 / deblock=1:0:0 / analyse=0x3:0x113 / me=hex / subme=7 / psy=1 / psy_rd=1.00:0.00 / mixed_ref=1 / me_range=16 / chroma_me=1 / trellis=1 / 8x8dct=1 / cqm=0 / deadzone=21,11 / fast_pskip=1 / chroma_qp_offset=-2 / threads=3 / sliced_threads=0 / nr=0 / decimate=1 / interlaced=0 / constrained_intra=0 / bframes=3 / b_pyramid=2 / b_adapt=1 / b_bias=0 / direct=1 / wpredb=1 / wpredp=2 / keyint=250 / keyint_min=25 / scenecut=40 / intra_refresh=0 / rc_lookahead=40 / rc=2pass / mbtree=1 / bitrate=10939 / ratetol=1.0 / qcomp=0.60 / qpmin=10 / qpmax=51 / qpstep=4 / cplxblur=20.0 / qblur=0.5 / ip_ratio=1.40 / aq=1:1.00
Language                                 : English
Default                                  : Yes
Forced                                   : No
Audio
ID                                       : 2
Format                                   : AC-3
Format/Info                              : Audio Coding 3
Mode extension                           : CM (complete main)
Format settings, Endianness              : Big
Codec ID                                 : A_AC3
Duration                                 : 1h 31mn
Bit rate mode                            : Constant
Bit rate                                 : 448 Kbps
Channel(s)                               : 6 channels
Channel positions                        : Front: L C R, Side: L R, LFE
Sampling rate                            : 48.0 KHz
Bit depth                                : 16 bits
Compression mode                         : Lossy
Stream size                              : 294 MiB (4%)
Language                                 : English
Default                                  : Yes
Forced                                   : No

精彩剧照


                                       

蓝光高清网提示您 点击下方附件名称 马上开始下载



温馨提示:
本站资源优先使用迅雷下载,迅雷会员下载,速度基本可以跑满宽带
如果遇到无资源或者版权问题无法下载,推荐使用115网盘离线下载(点击查看115网盘离线下载教程


  • 该资源需要您回复以后 刷新网页进行下载操作

  • 1、A.Matadors.Mistress.2007.1080p.BluRay.x264.DD5.1-FGT.torrent 74KB 已下载 0 次

加入蓝光高清网VIP会员  无限制下载本站所有资源---点此加入

资源下载、资源播放、字幕使用、无法下载等常见问题---点这里

回复

使用道具 举报

懒得打字嘛,点击右侧快捷回复
高级模式
B Color Image Link Quote Code Smilies 上传

本版积分规则

关注0

粉丝0

帖子66311

发布主题
最新电影 论坛
广告位
联系我们
点击这里联系客服

服务时间:
周一到周日8:00-23:30

  • 打开微信扫一扫
    关注公众号

  • 手机QQ扫一扫
    添加客服

Archiver手机版蓝光高清网 ( 渝ICP备18006373号-2 )|网站地图

Powered by Discuz! X3.4  © 2001-2013 Comsenz Inc.