开通会员
全站资源畅享下载
4k原盘抢先下载
免高清币下载
会员用户组特权
开通会员
上传
收藏
首页
开启左侧

[喜剧] 新鲜人/一年级新生 The.Freshman.1990.1080p.BluRay.x264.DTS-FGT 9.33GB

[复制链接]
蓝鸟 发表于 2021-1-19 18:39:22 | 显示全部楼层 |阅读模式 打印 上一主题 下一主题
 

加入蓝光高清网,轻松下载最新4k资源

您需要 登录 才可以下载或查看,没有帐号?立即注册

x
20190801120031.jpg


译  名 新鲜人 / 一年级新生 / 新手 / 蜥蜴教父
片  名 The Freshman
年  代 1990
产  地 美国
类  别 喜剧 / 犯罪
语  言 英语
上映日期 1990-07-20
IMDb评分  6.4/10 from 18614 users
IMDb链接  https://www.imdb.com/title/tt0099615
豆瓣评分 6.6/10 from 158 users
豆瓣链接 https://movie.douban.com/subject/1292758/
片  长 102 分钟
导  演 安德鲁·伯格曼 Andrew Bergman
编  剧 安德鲁·伯格曼 Andrew Bergman
主  演 马龙·白兰度 Marlon Brando
       马修·布罗德里克 Matthew Broderick
       布鲁诺·柯比 Bruno Kirby
       佩内洛普·安·米勒 Penelope Ann Miller
       Wendy Dickson

标  签 美国 | MarlonBrando | 犯罪 | 美国电影 | 1990 | MatthewBroderick | 马龙·白兰度 | 马龙.白兰度

简  介  

  克拉克(马修柏德利,「酷斯拉」)是纽约电影学院的新鲜人,但他还没开始享受大学生涯就被人骗走了行李和所有财物,正当他走投无路之时,竟意外遇上偷走他财物的混混。为弥补克拉克的损失,那混混为克拉克引荐其叔父萨巴提尼(奥斯卡影帝马龙白兰度,「现代启示录」),希望他能帮克拉克安插个工作。虽然萨巴提尼所从事的〃进口生意〃颇受人质疑,他后来却成了克拉克的良师,教了他许多待人处事的经验。马龙白兰度在本片一反以往的作风改走喜剧路线,和他在其代表作「教父」中柯里昂家族的教父形象大相迳庭。



该资源信息参数
  • Video
  • ID                                       : 1
  • Format                                   : AVC
  • Format/Info                              : Advanced Video Codec
  • Format profile                           : High@L4.1
  • Format settings                          : CABAC / 4 Ref Frames
  • Format settings, CABAC                   : Yes
  • Format settings, Reference frames        : 4 frames
  • Codec ID                                 : V_MPEG4/ISO/AVC
  • Duration                                 : 1 h 42 min
  • Bit rate                                 : 11.5 Mb/s
  • Width                                    : 1 920 pixels
  • Height                                   : 1 072 pixels
  • Display aspect ratio                     : 16:9
  • Frame rate mode                          : Constant
  • Frame rate                               : 23.976 (24000/1001) FPS
  • Color space                              : YUV
  • Chroma subsampling                       : 4:2:0
  • Bit depth                                : 8 bits
  • Scan type                                : Progressive
  • Bits/(Pixel*Frame)                       : 0.233
  • Stream size                              : 8.25 GiB (88%)
  • Writing library                          : x264 core 148 r2748 97eaef2
  • Encoding settings                        : cabac=1 / ref=4 / deblock=1:-2:-2 / analyse=0x3:0x113 / me=umh / subme=9 / psy=1 / psy_rd=1.00:0.15 / mixed_ref=1 / me_range=16 / chroma_me=1 / trellis=2 / 8x8dct=1 / cqm=0 / deadzone=21,11 / fast_pskip=1 / chroma_qp_offset=-3 / threads=72 / lookahead_threads=3 / sliced_threads=0 / nr=0 / decimate=1 / interlaced=0 / bluray_compat=0 / constrained_intra=0 / bframes=3 / b_pyramid=2 / b_adapt=1 / b_bias=0 / direct=3 / weightb=1 / open_gop=0 / weightp=2 / keyint=250 / keyint_min=25 / scenecut=40 / intra_refresh=0 / rc_lookahead=50 / rc=2pass / mbtree=1 / bitrate=11500 / ratetol=1.0 / qcomp=0.60 / qpmin=0 / qpmax=69 / qpstep=4 / cplxblur=20.0 / qblur=0.5 / vbv_maxrate=31250 / vbv_bufsize=31250 / nal_hrd=none / filler=0 / ip_ratio=1.40 / aq=1:1.00
  • Language                                 : English
  • Default                                  : Yes
  • Forced                                   : No
  • Audio
  • ID                                       : 2
  • ID in the original source medium         : 4352 (0x1100)
  • Format                                   : DTS
  • Format/Info                              : Digital Theater Systems
  • Codec ID                                 : A_DTS
  • Duration                                 : 1 h 42 min
  • Bit rate mode                            : Constant
  • Bit rate                                 : 1 509 kb/s
  • Channel(s)                               : 2 channels
  • Channel layout                           : L R
  • Sampling rate                            : 48.0 kHz
  • Frame rate                               : 93.750 FPS (512 SPF)
  • Bit depth                                : 24 bits
  • Compression mode                         : Lossy
  • Stream size                              : 1.08 GiB (12%)
  • Title                                    : DTS 2.0
  • Language                                 : English
  • Default                                  : No
  • Forced                                   : No
  • Original source medium                   : Blu-ray
  • Text
  • ID                                       : 3
  • Format                                   : UTF-8
  • Codec ID                                 : S_TEXT/UTF8
  • Codec ID/Info                            : UTF-8 Plain Text
  • Duration                                 : 1 h 37 min
  • Bit rate                                 : 67 b/s
  • Count of elements                        : 1757
  • Stream size                              : 47.8 KiB (0%)
  • Title                                    : SRT
  • Language                                 : English
  • Default                                  : Yes
  • Forced                                   : No
  • Menu
  • 00:00:00.000                             : en:Chapter 01
  • 00:09:34.865                             : en:Chapter 02
  • 00:15:20.920                             : en:Chapter 03
  • 00:27:51.252                             : en:Chapter 04
  • 00:35:01.390                             : en:Chapter 05
  • 00:49:45.899                             : en:Chapter 06
  • 01:00:28.916                             : en:Chapter 07
  • 01:08:54.839                             : en:Chapter 08
  • 01:19:15.333                             : en:Chapter 09
  • 01:32:55.444                             : en:Chapter 10
  • 01:38:14.847                             : en:Chapter 11

复制代码



20190801120031.jpg


20190801120031.jpg


20190801120031.jpg


蓝光高清网提示您  点击下方附件名称  马上开始下载

新鲜人/一年级新生 The.Freshman.1990.1080p.BluRay.x264.DTS-FGT 9.33GB
The.Freshman.1990.1080p.BluRay.x264.DTS-FGT.torrent (文件大小:47.17 KB)
加入蓝光高清网VIP会员  无限制下载本站所有资源---点这里

资源下载、资源播放、字幕使用、无法下载等常见问题---点这里
回复

使用道具 举报

 

精彩评论7

正序浏览
yuzhong000 发表于 2021-1-19 22:02:26 | 显示全部楼层
 
加入蓝光高清网VIP会员
回复

使用道具 举报

 
yuzhong000 发表于 2021-1-20 00:17:18 | 显示全部楼层
 
祝论坛越办越红火
回复

使用道具 举报

 
yuzhong000 发表于 2021-1-20 00:29:21 | 显示全部楼层
 
祝论坛越办越红火
回复

使用道具 举报

 
yuzhong000 发表于 2021-1-21 01:15:01 | 显示全部楼层
 
谢谢楼主分享
回复

使用道具 举报

 
yuzhong000 发表于 2021-1-21 01:17:39 | 显示全部楼层
 
谢谢楼主分享
回复

使用道具 举报

 
yuzhong000 发表于 2021-1-21 01:19:28 | 显示全部楼层
 
谢谢楼主分享
回复

使用道具 举报

 
yuzhong000 发表于 2021-1-21 01:24:22 | 显示全部楼层
 
谢谢楼主分享
回复

使用道具 举报

 
您需要登录后才可以回帖 登录 | 立即注册

本版积分规则

0关注

2粉丝

93704帖子

  • 版块推荐
  • 百宝箱

电影推荐

更多+

热门电影

更多+

下载APP 签到更便捷

官方微信

手机APP

蓝光高清网

专注4k电影、4k视频、VR视频、高清电影、蓝光原盘资源

本站内容部分由用户自主分享和转载自互联网,转载目的在于传递更多信息,并不代表本网赞同其观点和对其真实性负责。

如有侵权、违反国家法律政策行为,请联系我们,我们会第一时间及时清除和处理!

举报反馈邮箱:lanniao@1080pro.net

Copyright   ©2019-2020  蓝光高清网    |网站地图