[喜剧] 禁区 Forbidden.Zone.1980.1080p.BluRay.X264-7SinS 5.45GB

[复制链接]
蓝鸟 发表于 2019-8-21 22:31:52 | 显示全部楼层 |阅读模式 打印 上一主题 下一主题

禁区 Forbidden.Zone.1980.1080p.BluRay.X264-7SinS 5.45GB-1.jpg
◎译  名 禁区
◎片  名 Forbidden Zone
◎年  代 1982
◎国  家 美国
◎类  别 喜剧/奇幻/歌舞
◎语  言 英语
◎上映日期 1982-09-15
◎IMDb评分  6.9/10 from 3,315 users
◎IMDb链接  http://www.imdb.com/title/tt0080752/
◎豆瓣评分 0/10 from 9 users
◎豆瓣链接 http://movie.douban.com/subject/2155536/
◎片  长 73 分钟/USA: 74 分钟
◎导  演 Richard Elfman
◎主  演 赫夫·维勒查泽 Hervé Villechaize
      苏珊·泰瑞尔 Susan Tyrrell
      Gisele Lindley
      Jan Stuart Schwartz
      丹尼·艾夫曼 Marie-Pascale Elfman
      Virginia Rose
◎简  介
  A mysterious door in the basement of the Hercules house leads to the Sixth Dimension by way of a gigantic set of intestine. When Frenchy slips through the door| King
Fausto falls in love with her. The jealous Queen Doris takes Frenchy prisoner| and it is up to the Hercules family and friend Squeezit Henderson to rescue her.
Video
ID                                       : 1
Format                                   : AVC
Format/Info                              : Advanced Video Codec
Format profile                           : [email protected]
Format settings, CABAC                   : Yes
Format settings, ReFrames                : 4 frames
Codec ID                                 : V_MPEG4/ISO/AVC
Duration                                 : 1h 14mn
Bit rate                                 : 9 004 Kbps
Width                                    : 1 920 pixels
Height                                   : 1 080 pixels
Display aspect ratio                     : 16:9
Frame rate mode                          : Constant
Frame rate                               : 23.976 fps
Color space                              : YUV
Chroma subsampling                       : 4:2:0
Bit depth                                : 8 bits
Scan type                                : Progressive
Bits/(Pixel*Frame)                       : 0.181
Stream size                              : 4.56 GiB (84%)
Writing library                          : x264 core 124 r2197 69a0443
Encoding settings                        : cabac=1 / ref=4 / deblock=1:0:0 / analyse=0x3:0x133 / me=umh / subme=7 / psy=1 / psy_rd=1.00:0.00 / mixed_ref=1 / me_range=16 / chroma_me=1 / trellis=1 / 8x8dct=1 / cqm=0 / deadzone=21,11 / fast_pskip=0 / chroma_qp_offset=-2 / threads=12 / sliced_threads=0 / nr=0 / decimate=1 / interlaced=0 / bluray_compat=0 / constrained_intra=0 / bframes=3 / b_pyramid=2 / b_adapt=2 / b_bias=0 / direct=3 / weightb=1 / open_gop=0 / weightp=2 / keyint=250 / keyint_min=23 / scenecut=40 / intra_refresh=0 / rc_lookahead=50 / rc=2pass / mbtree=1 / bitrate=9004 / ratetol=1.0 / qcomp=0.60 / qpmin=0 / qpmax=69 / qpstep=4 / cplxblur=20.0 / qblur=0.5 / ip_ratio=1.40 / aq=1:1.00
Language                                 : English
Default                                  : Yes
Forced                                   : No
Audio
ID                                       : 2
Format                                   : DTS
Format/Info                              : Digital Theater Systems
Mode                                     : 16
Format settings, Endianness              : Big
Codec ID                                 : A_DTS
Duration                                 : 1h 14mn
Bit rate mode                            : Constant
Bit rate                                 : 1 509 Kbps
Channel(s)                               : 6 channels
Channel positions                        : Front: L C R, Side: L R, LFE
Sampling rate                            : 48.0 KHz
Bit depth                                : 24 bits
Compression mode                         : Lossy
Stream size                              : 802 MiB (14%)
Language                                 : English
Default                                  : Yes
Forced                                   : No
RLSNAME-----------  Forbidden.Zone.1982.1080p.BluRay.X264-7SinS
YEAR--------------  1982
URL---------------  http://www.imdb.com/title/tt0080752/
VIDEO-------------  1920x1080
LANGUAGE(s)-------  english dts @ 1536kb/s
SUB(s)------------  english
This is the coloured/USA version for those interested.
Screens:

精彩剧照

禁区 Forbidden.Zone.1980.1080p.BluRay.X264-7SinS 5.45GB-2.jpg 禁区 Forbidden.Zone.1980.1080p.BluRay.X264-7SinS 5.45GB-3.jpg 禁区 Forbidden.Zone.1980.1080p.BluRay.X264-7SinS 5.45GB-4.jpg 禁区 Forbidden.Zone.1980.1080p.BluRay.X264-7SinS 5.45GB-5.jpg 禁区 Forbidden.Zone.1980.1080p.BluRay.X264-7SinS 5.45GB-6.jpg 禁区 Forbidden.Zone.1980.1080p.BluRay.X264-7SinS 5.45GB-7.jpg
                                       

蓝光高清网提示您 点击下方附件名称 马上开始下载

Forbidden.Zone.1980.1080p.BluRay.X264-7SinS.torrent 
         (55.07 KB    阅读权限: 0)
加入蓝光高清网VIP会员  无限制下载本站所有资源---点这里

资源下载、资源播放、字幕使用、无法下载等常见问题---点这里
回复

使用道具 举报

精彩评论1

litianyu 发表于 2019-8-21 22:33:13 | 显示全部楼层
终于找到了  谢谢分享
回复

使用道具 举报

您需要登录后才可以回帖 登录 | 立即注册

本版积分规则

关注0

粉丝1

帖子83658

发布主题
最新电影 论坛
本期活动
联系我们
点击这里联系客服

服务时间:
周一到周日8:00-23:30

  • 打开微信扫一扫
    关注公众号

  • 手机QQ扫一扫
    添加客服

手机版蓝光高清网 |网站地图

Powered by Discuz! X3.4  © 2001-2013 Comsenz Inc.