[犯罪] 恶魔/浴室情杀案/像恶魔的女人 Diabolique.1955.FRENCH.1080p.BluRay.DD1.0-FGT 13GB

[复制链接]
蓝鸟VIP会员 永久VIP 发表于 2019-8-21 22:32:41 | 显示全部楼层 |阅读模式 打印 上一主题 下一主题

马上注册,轻松下载,海量资源,让你轻松玩转社区。

您需要 登录 才可以下载或查看,没有帐号?立即注册

x


◎译  名 恶魔/浴室情杀案/像恶魔的女人/魔鬼双姝
◎片  名 Les diaboliques
◎年  代 1955
◎国  家 法国
◎类  别 犯罪/剧情/恐怖/悬疑/惊悚
◎语  言 法语
◎上映日期 1955-01-29
◎IMDb评分  8.2/10 from 35,771 users
◎IMDb链接  http://www.imdb.com/title/tt0046911/
◎豆瓣评分 8.4/10 from 4,645 users
◎豆瓣链接 http://movie.douban.com/subject/1293213/
◎片  长 114分钟/92分钟(英国)/116分钟(美国)
◎导  演 亨利-乔治·克鲁佐 Henri-Georges Clouzot
◎主  演 西蒙·西涅莱 Simone Signoret
      薇拉·克劳佐 Véra Clouzot
      保罗·默里斯 Paul Meurisse
◎简  介
  德拉萨尔寄宿学校里,女教师克里斯蒂娜和丈夫、校长米歇尔·德拉萨尔感情不偕,德拉萨尔对待他妻子也很粗暴。克里斯蒂娜经过长时间考虑,决定摆脱丈夫,在另一个教师、女友尼古尔的劝说下,她们决定实施一个谋杀计划……
Video
ID                                       : 1
Format                                   : AVC
Format/Info                              : Advanced Video Codec
Format profile                           : [email protected]
Format settings, CABAC                   : Yes
Format settings, ReFrames                : 5 frames
Codec ID                                 : V_MPEG4/ISO/AVC
Duration                                 : 1h 57mn
Bit rate                                 : 15.4 Mbps
Width                                    : 1 440 pixels
Height                                   : 1 080 pixels
Display aspect ratio                     : 4:3
Frame rate mode                          : Constant
Frame rate                               : 23.976 fps
Color space                              : YUV
Chroma subsampling                       : 4:2:0
Bit depth                                : 8 bits
Scan type                                : Progressive
Bits/(Pixel*Frame)                       : 0.414
Stream size                              : 12.4 GiB (95%)
Writing library                          : x264 core 114 r1924 08d04a4
Encoding settings                        : cabac=1 / ref=5 / deblock=1:-3:-3 / analyse=0x3:0x113 / me=umh / subme=10 / psy=1 / psy_rd=1.10:0.15 / mixed_ref=1 / me_range=48 / chroma_me=1 / trellis=2 / 8x8dct=1 / cqm=0 / deadzone=21,11 / fast_pskip=0 / chroma_qp_offset=-2 / threads=12 / sliced_threads=0 / nr=0 / decimate=1 / interlaced=0 / constrained_intra=0 / bframes=6 / b_pyramid=2 / b_adapt=2 / b_bias=0 / direct=3 / weightb=1 / open_gop=0 / weightp=2 / keyint=250 / keyint_min=23 / scenecut=40 / intra_refresh=0 / rc_lookahead=60 / rc=2pass / mbtree=1 / bitrate=15428 / ratetol=1.0 / qcomp=0.70 / qpmin=0 / qpmax=69 / qpstep=4 / cplxblur=20.0 / qblur=0.5 / vbv_maxrate=40000 / vbv_bufsize=30000 / nal_hrd=none / ip_ratio=1.40 / aq=1:0.90
Language                                 : English
Default                                  : No
Forced                                   : No
Audio
ID                                       : 2
Format                                   : AC-3
Format/Info                              : Audio Coding 3
Mode extension                           : CM (complete main)
Format settings, Endianness              : Big
Codec ID                                 : A_AC3
Duration                                 : 1h 57mn
Bit rate mode                            : Constant
Bit rate                                 : 448 Kbps
Channel(s)                               : 1 channel
Channel positions                        : Front: C
Sampling rate                            : 48.0 KHz
Bit depth                                : 16 bits
Compression mode                         : Lossy
Stream size                              : 376 MiB (3%)
Language                                 : French
Default                                  : Yes
Forced                                   : No
Text
ID                                       : 3
Format                                   : UTF-8
Codec ID                                 : S_TEXT/UTF8
Codec ID/Info                            : UTF-8 Plain Text
Language                                 : English
Default                                  : Yes
Forced                                   : No
Menu
00:00:00.000                             : en:00:00:00.000
00:03:51.273                             : en:00:03:51.273
00:06:41.109                             : en:00:06:41.109
00:10:39.973                             : en:00:10:39.973
00:15:51.784                             : en:00:15:51.784
00:19:57.446                             : en:00:19:57.446
00:23:40.461                             : en:00:23:40.461
00:25:59.183                             : en:00:25:59.183
00:31:03.487                             : en:00:31:03.487
00:41:09.634                             : en:00:41:09.634
00:44:09.856                             : en:00:44:09.856
00:47:54.997                             : en:00:47:54.997
00:51:03.978                             : en:00:51:03.978
00:53:49.226                             : en:00:53:49.226
00:57:58.809                             : en:00:57:58.809
01:00:53.400                             : en:01:00:53.400
01:05:34.139                             : en:01:05:34.139
01:09:11.731                             : en:01:09:11.731
01:15:28.149                             : en:01:15:28.149
01:18:50.559                             : en:01:18:50.559
01:22:53.177                             : en:01:22:53.177
01:29:16.643                             : en:01:29:16.643
01:32:16.740                             : en:01:32:16.740
01:36:40.837                             : en:01:36:40.837
01:42:11.417                             : en:01:42:11.417
01:45:45.839                             : en:01:45:45.839
01:52:34.873                             : en:01:52:34.873
01:55:46.273                             : en:01:55:46.273

精彩剧照


                                       

蓝光高清网提示您 点击下方附件名称 马上开始下载



温馨提示:
本站资源优先使用迅雷下载,迅雷会员下载,速度基本可以跑满宽带
如果遇到无资源或者版权问题无法下载,推荐使用115网盘离线下载(点击查看115网盘离线下载教程


  • 该资源需要您回复以后 刷新网页进行下载操作

  • 1、Diabolique.1955.FRENCH.1080p.BluRay.DD1.0-FGT.torrent 66KB 已下载 0 次

加入蓝光高清网VIP会员  无限制下载本站所有资源---点此加入

资源下载、资源播放、字幕使用、无法下载等常见问题---点这里

回复

使用道具 举报

懒得打字嘛,点击右侧快捷回复
高级模式
B Color Image Link Quote Code Smilies 上传

本版积分规则

关注0

粉丝0

帖子66703

发布主题
最新电影 论坛
广告位
联系我们
点击这里联系客服

服务时间:
周一到周日8:00-23:30

  • 打开微信扫一扫
    关注公众号

  • 手机QQ扫一扫
    添加客服

Archiver手机版蓝光高清网 ( 渝ICP备18006373号-2 )|网站地图

Powered by Discuz! X3.4  © 2001-2013 Comsenz Inc.