[犯罪] 复核调查 Contre-enquete.2007.FRENCH.1080p.BluRay.x264.DTS-FGT 6.56GB

[复制链接]
蓝鸟VIP会员 永久VIP 发表于 2019-8-21 22:33:30 | 显示全部楼层 |阅读模式 打印 上一主题 下一主题

马上注册,轻松下载,海量资源,让你轻松玩转社区。

您需要 登录 才可以下载或查看,没有帐号?立即注册

x


◎译  名 复核调查
◎片  名 Contre-enquête
◎年  代 2007
◎国  家 法国
◎类  别 犯罪
◎语  言 法语
◎上映日期 2007-03-07
◎IMDb评分  6.6/10 from 1,871 users
◎IMDb链接  http://www.imdb.com/title/tt0825239/
◎豆瓣评分 7.3/10 from 426 users
◎豆瓣链接 http://movie.douban.com/subject/2020437/
◎片  长 81分钟
◎导  演 弗朗克·曼库索 Franck Mancuso
◎主  演 让·杜雅赫丹 Jean Dujardin
      劳伦特·卢卡斯 Laurent Lucas
      阿涅丝·布朗肖 Agnès Blanchot
◎简  介
  本片从所有的家长的共同噩梦开始:由于双亲工作繁忙,一个独自留在家里的小女孩惨遭色魔奸杀。女孩的父亲马利诺夫斯基是警察,母亲是麻醉医师。主要嫌犯埃克曼是一个相貌堂堂的心理变态男子,他起初认罪,后来又翻供,但法庭仍根据他的供词,在缺乏任何物证的情况下判处他30年的徒刑。一天,马利诺夫斯基接到埃克曼的一封信,后者再次声明他无辜。马利诺夫斯基这一次没有撕毁信,他把此案和一名连续杀害小孩的凶手被捕的案子对比,他的女儿遇害时,这个杀人凶手也在这个地区内,他决定对这个新的线索展开调查,但这却引起周围的人的不理解。
Video
ID                                       : 1
Format                                   : AVC
Format/Info                              : Advanced Video Codec
Format profile                           : [email protected]
Format settings, CABAC                   : Yes
Format settings, ReFrames                : 5 frames
Codec ID                                 : V_MPEG4/ISO/AVC
Duration                                 : 1h 24mn
Bit rate                                 : 9 662 Kbps
Width                                    : 1 920 pixels
Height                                   : 816 pixels
Display aspect ratio                     : 2.35:1
Frame rate mode                          : Constant
Frame rate                               : 23.976 fps
Color space                              : YUV
Chroma subsampling                       : 4:2:0
Bit depth                                : 8 bits
Scan type                                : Progressive
Bits/(Pixel*Frame)                       : 0.257
Stream size                              : 5.54 GiB (84%)
Writing library                          : x264 core 128 r2216 198a7ea
Encoding settings                        : cabac=1 / ref=5 / deblock=1:0:0 / analyse=0x3:0x113 / me=umh / subme=7 / psy=1 / psy_rd=1.00:0.00 / mixed_ref=1 / me_range=16 / chroma_me=1 / trellis=1 / 8x8dct=1 / cqm=0 / deadzone=21,11 / fast_pskip=0 / chroma_qp_offset=-2 / threads=3 / lookahead_threads=1 / sliced_threads=0 / nr=0 / decimate=1 / interlaced=0 / bluray_compat=0 / constrained_intra=0 / bframes=3 / b_pyramid=2 / b_adapt=1 / b_bias=0 / direct=1 / weightb=1 / open_gop=0 / weightp=2 / keyint=250 / keyint_min=23 / scenecut=40 / intra_refresh=0 / rc_lookahead=40 / rc=2pass / mbtree=1 / bitrate=9662 / ratetol=1.0 / qcomp=0.60 / qpmin=0 / qpmax=69 / qpstep=4 / cplxblur=20.0 / qblur=0.5 / ip_ratio=1.40 / aq=1:1.00
Language                                 : French
Default                                  : Yes
Forced                                   : No
Audio
ID                                       : 2
Format                                   : DTS
Format/Info                              : Digital Theater Systems
Mode                                     : 16
Format settings, Endianness              : Big
Codec ID                                 : A_DTS
Duration                                 : 1h 24mn
Bit rate mode                            : Constant
Bit rate                                 : 1 509 Kbps
Channel(s)                               : 6 channels
Channel positions                        : Front: L C R, Side: L R, LFE
Sampling rate                            : 48.0 KHz
Bit depth                                : 24 bits
Compression mode                         : Lossy
Stream size                              : 907 MiB (14%)
Language                                 : French
Default                                  : Yes
Forced                                   : No
Text
ID                                       : 3
Format                                   : UTF-8
Codec ID                                 : S_TEXT/UTF8
Codec ID/Info                            : UTF-8 Plain Text
Language                                 : English
Default                                  : Yes
Forced                                   : No

精彩剧照


                                       

蓝光高清网提示您 点击下方附件名称 马上开始下载



温馨提示:
本站资源优先使用迅雷下载,迅雷会员下载,速度基本可以跑满宽带
如果遇到无资源或者版权问题无法下载,推荐使用115网盘离线下载(点击查看115网盘离线下载教程


  • 该资源需要您回复以后 刷新网页进行下载操作

  • 1、Contre-enquete.2007.FRENCH.1080p.BluRay.x264.DTS-FGT.torrent 66KB 已下载 0 次

加入蓝光高清网VIP会员  无限制下载本站所有资源---点此加入

资源下载、资源播放、字幕使用、无法下载等常见问题---点这里

回复

使用道具 举报

懒得打字嘛,点击右侧快捷回复
高级模式
B Color Image Link Quote Code Smilies 上传

本版积分规则

关注0

粉丝0

帖子68004

发布主题
最新电影 论坛
广告位
联系我们
点击这里联系客服

服务时间:
周一到周日8:00-23:30

  • 打开微信扫一扫
    关注公众号

  • 手机QQ扫一扫
    添加客服

Archiver手机版蓝光高清网 ( 渝ICP备18006373号-2 )|网站地图

Powered by Discuz! X3.4  © 2001-2013 Comsenz Inc.