开通会员
全站资源畅享下载
4k原盘抢先下载
免高清币下载
会员用户组特权
开通会员
上传
收藏
首页
开启左侧

世界新闻 4k News.of.the.World.2020.2160p.AMZN.WEB-DL.x265.10bit.HDR10plus.DDP5.1.电影下载

[复制链接]
蓝鸟 发表于 2021-1-20 10:40:19 | 显示全部楼层 |阅读模式 打印 上一主题 下一主题

世界新闻(2020年上映)

主演汤姆·汉克斯 / 海伦娜·泽格尔 / 伊丽莎白·玛维尔 / 雷·迈克金农 / 梅尔·温宁汉姆
导演保罗·格林格拉斯
类型动作 剧情 冒险 西部 
地区美国 
片长118分钟
画质4K HDR 原盘
音轨Dolby TrueHD 5.1 
评分豆瓣7.0分
电影【世界新闻】原盘信息
 

加入蓝光高清网,轻松下载最新4k资源

您需要 登录 才可以下载或查看,没有帐号?立即注册

x
, ~* g! r' e7 {/ @
4 L' i3 e" O3 Z! ~# \7 J2 Z! F
简       介
' I) ^1 A. V) b4 H3 }: Y
7 D8 K! c- S2 N2 O3 l, M" d/ R8 e  美国内战结束后五年,三场战争的退伍军官杰佛森凯尔基得上尉(汤姆·汉克斯 饰),现在以读报人的身份从一个小镇到另一个小镇,和当地居民分享世界各地的精彩新闻。他在德州的平原遇到乔韩娜(海伦娜·泽格尔 饰),一 个六年前被凯奥瓦印第安人掳走并被收养的十岁女孩。乔韩娜对她未曾体验过的世界充满敌意,而且被迫被送回她的阿姨和姨丈身边。基得上尉答应护送这女孩回到她依照法律应该属于的地方。他们必须在环境严苛的野外跋山涉水好几百英哩,而且这两人在寻找一个他们都可以称为家园的地方时,将面对来自人类和大自然的巨大挑战。1 ?$ ]  h# ?1 q6 g$ b  M1 X/ ]
  该片根据波莱特·吉尔斯同名小说改编。
8 b" Q. g1 d3 k. f6 e
2 _# e& I2 W6 s2 P$ c" }
- Y" D$ U* B& v3 k5 n
影片参数# \! J" ]$ l, B: f1 n
结叛同行(港) / 读报人(台)/世界新闻4k News.of.the.World.2020.2160p.AMZN.WEB-DL.x265.10bit.HDR10plus.DDP5.1.电影信息
. |# H+ T) A' a6 ?; ^Video
7 }' X0 W' c2 f% }; P: {ID : 1
' r6 ~* S: M' g8 j' HFormat : HEVC
: J/ k0 S5 m  lFormat/Info : High Efficiency Video Coding9 x3 R4 s% ]9 c
Format profile : Main 10@L5@Main
. ?) ~9 m9 x( o! iHDR format : SMPTE ST 2094 App 4, Version 1, HDR10+ Profile B compatible
" z& z5 K( x( R# RCodec ID : V_MPEGH/ISO/HEVC
& v5 O3 F4 b% l% m. z/ P( l7 p8 kDuration : 1 h 58 min* Z6 x: t: @: j" L: t
Bit rate : 14.8 Mb/s( N; v. s$ l( w, U% X5 k2 X$ |! s
Width : 3 840 pixels
" q' C  m8 e- }/ aHeight : 1 600 pixels
0 T" V# `. `* Y2 `4 G# ?Display aspect ratio : 2.40:1
" W# c% Z& z/ W) sFrame rate mode : Constant+ s, P; z9 z! T9 E* _) C! V7 w% o
Frame rate : 23.976 (24000/1001) FPS
, ~& X! u  ?! v6 t& ?Color space : YUV0 Z# ]* z) G9 n. u
Chroma subsampling : 4:2:08 n$ h% N6 s# b
Bit depth : 10 bits
  R$ S) w7 d/ l, ~" Y; A) S2 RBits/(Pixel*Frame) : 0.100$ n9 d: x% u' X
Stream size : 12.2 GiB (96%)  t+ d- E! q% I3 O& y
Default : Yes" i) I7 l3 z5 }3 k
Forced : No1 W, ~0 J) O" G) p* k& Z
Color range : Limited3 |+ @: E* m3 z
Color primaries : BT.20208 Z/ d( m) D5 X$ q
Transfer characteristics : PQ, z& g7 a$ g' I9 A
Matrix coefficients : BT.2020 non-constant
; ]  G9 u" S, u0 x! WMastering display color primaries : Display P3
* d9 h5 k* S# ~, x# f5 n% Y4 xMastering display luminance : min: 0.0050 cd/m2, max: 1000 cd/m2
. o8 k9 s' c5 `9 r7 K' n$ R: RMaximum Content Light Level : 1000 cd/m27 k# G# Y4 p. ~0 }1 X. z+ S
Maximum Frame-Average Light Level : 184 cd/m2
) F  [" E: _0 d% D
' w9 L; O" u$ E, B( A
5 y5 c6 ]! l3 K  D, ?8 F+ Q
Audio
  B/ O7 J8 K, i1 ZID : 2
1 I, K2 ~' C8 XFormat : E-AC-3
1 L) `  Y3 \# g& ]$ |/ k9 K0 eFormat/Info : Enhanced AC-3
) K7 v# Z& C* }Commercial name : Dolby Digital Plus
0 z- \) a5 d. \4 P6 cCodec ID : A_EAC3) j3 i# b" A* T$ t& h, d
Duration : 1 h 58 min) t3 q$ ~, L. k) n  [/ `1 C2 M5 V
Bit rate mode : Constant2 z& P4 ?. l6 o9 T# x
Bit rate : 640 kb/s
5 A3 K$ j7 q6 r: J! fChannel(s) : 6 channels2 d: L7 j! _3 @: j% f/ @$ j
Channel layout : L R C LFE Ls Rs
/ @8 _7 y& H' P5 j2 O1 }, DSampling rate : 48.0 kHz
6 p1 ~4 D* R7 @: ~2 oFrame rate : 31.250 FPS (1536 SPF)" ]% f/ c2 y# J9 b  r
Compression mode : Lossy* w/ A$ ?! h; O: `, S
Stream size : 542 MiB (4%)
) S) x, q. j6 F, \0 |5 F; |7 i+ e9 CTitle : DDP 5.1! H% y+ W: g7 K9 Y
Language : English
# L) |& e6 I" r& {0 k; GService kind : Complete Main
5 N+ e0 R" t0 s, Z2 iDefault : No& U$ f+ b  ?$ S! B' o. t4 i
Forced : No& D5 l5 a% q( ~, W
5 L+ o1 L$ `( h! i: g
. m( P: T$ r7 O: Y' n9 Y! `/ a
Text #1! F! S4 }# ^( y
ID : 3
7 L" n, {, @! w# b2 p2 zFormat : UTF-8; A' R( ~1 B# {+ F) J, |2 s
Codec ID : S_TEXT/UTF8
) ?" y, x2 q, U: y. ^& c4 i+ cCodec ID/Info : UTF-8 Plain Text
6 R6 V) I. C0 lDuration : 1 h 50 min
" o1 ]  M+ B6 m1 V6 W5 r9 VBit rate : 31 b/s& L2 z2 \' q0 C  T) o" N7 {
Count of elements : 1010
7 k8 D; [0 |6 g$ P9 _6 s" t7 GStream size : 25.9 KiB (0%)7 T: d' @: q: g# s$ c$ p
Language : English
9 D& P3 m% J% Z1 H5 E: BDefault : No
) \4 z& V) ?4 m/ _Forced : No6 m; x% k( y2 z7 _& n
* r% z9 \  q, T* m2 V

; Q+ o* G+ L) s) B7 i* OText #2$ `  S3 U) z" |/ E% W
ID : 4
3 B" s1 O( C) L, _1 `Format : UTF-8  d" m+ a; D" J- K0 a& \4 m
Codec ID : S_TEXT/UTF8
7 _5 h( w" O( G- l% x5 RCodec ID/Info : UTF-8 Plain Text
+ Y! w# x: h7 j! @! u. s% pDuration : 1 h 58 min0 p" e" D: u: r8 o$ N# W/ x7 }
Bit rate : 38 b/s
0 L2 a* l# ^1 \3 ~# Z, P- o) p% nCount of elements : 1358
: c. j# ?9 x( F2 v5 M' OStream size : 33.4 KiB (0%). B$ |7 I& e: l1 T) f; u% ~
Title : SDH
1 l7 d( M' U9 l0 bLanguage : English: R3 A1 `+ f) s' @" g
Default : No/ ^' v- g8 p2 W( k% Z8 u9 a
Forced : No
$ _( @3 v: \5 C) f& W
/ M# r* g/ E: J7 w. e) e# E

) m! f9 y6 f2 |& n1 l4 ]Menu* H$ r9 R. M9 L/ p3 G% F
00:00:00.000 : en:Studio Logo) u$ m+ i+ X9 x) y* ]
00:00:30.000 : en:Scene 2- K- |/ H* \6 n' p5 K5 m! \
00:03:41.000 : en:Scene 3
2 W8 {! B( c4 k  J! D6 u00:09:58.000 : en:Scene 4! y( E0 l( f6 {* _" |: Q
00:15:37.000 : en:Scene 5
- z( l6 ~& \$ O00:19:51.000 : en:Scene 6& k% ]  n4 J6 |  B% u2 L
00:23:00.000 : en:Scene 77 c) y9 b' y- I# F* h3 b0 A
00:30:30.000 : en:Scene 8
& a8 ~% o6 S: V00:35:48.000 : en:Scene 9' G6 v. A. f% `0 P+ |: ^# x% U
00:42:04.000 : en:Scene 10* ]3 Z( Z5 C* B* y: n
00:51:10.000 : en:Scene 11
. Y, Z7 ?# Q; Q00:58:46.000 : en:Scene 12
7 g- r  D: ^- v; U7 P; s" C/ G, V01:01:41.000 : en:Scene 13
: H  u: K% U2 R/ z& A01:09:53.000 : en:Scene 14
7 W( \! J9 @3 E01:12:20.000 : en:Scene 15+ E5 W% ]/ l0 T& o* s4 c  p
01:16:41.000 : en:Scene 16* h+ F( R# k4 U
01:23:03.000 : en:Scene 17
9 J, q( P" t# `1 H01:25:51.000 : en:Scene 186 `* k; l9 F4 _, C# P; D
01:28:19.000 : en:Scene 19
9 {/ v* M; c" b9 n) `% ~& M01:31:39.000 : en:Scene 20
, T" C+ p5 c. U1 N- v$ Z2 F01:33:42.000 : en:Scene 21
* p" E0 k8 Y1 ^# {8 k& R& \01:37:24.000 : en:Scene 22
* u& `* ?2 ]( D4 G/ J, A4 j01:51:00.000 : en:Scene 23+ h1 f1 o- b' u  e6 @8 J
01:53:36.000 : en:End Credits
- J) Y! Z- K: u8 S. O  B
+ d4 A# T; V$ {* G9 a
蓝光高清网提示您  点击下方附件名称  马上开始下载
: ~  o- P4 c4 u( f! ~7 t3 g5 C  k( l# G7 [1 `" y
多版本下载时请注意区分
2 z& o' j+ k2 T- B% B; c: P0 @2 x& ?# I8 }- l. e
结叛同行(港) / 读报人(台)/世界新闻4k News.of.the.World.2020.2160p.AMZN.WEB-DL.x265.10bit.HDR10plus.DDP5.1.电影下载
! D1 _' m' |! \' S: x6 T+ c' g5 J' m* q
世界新闻4k News.of.the.World.2020.2160p.AMZN.WEB-DL.x265.10bit.HDR10plus.DDP5.1【12.73 GB】
. r3 ], P0 w3 V% {# M* [" L 世界新闻4k News.of.the.World.2020.2160p.AMZN.WEB-DL.x265.10bit.HDR10plus..torrent (文件大小:64.22 KB)

, R! X, _; c+ M& H: s8 F# f$ O8 q) G" t0 q7 ^! D) l2 W) z$ k
世界新闻中文字幕下载
" l  x% H8 n% q* r% y2 ] 讀報人.News.of.the.World.2020.1080p.AMZN.WEBRip.DDP5.1.x264-NOGRP.rar (文件大小:71.57 KB)

) S1 H, }$ o0 d

  n& t( M3 e/ t/ r9 w6 h  G- n
加入蓝光高清网VIP会员  无限制下载本站所有资源---点这里

资源下载、资源播放、字幕使用、无法下载等常见问题---点这里
回复

使用道具 举报

 

精彩评论4

正序浏览
gdlmxia 发表于 2021-1-20 14:01:42 | 显示全部楼层
 
太好啦&萬分感謝版主的無私發佈分享%
回复

使用道具 举报

 
feiyue 发表于 2021-1-20 20:49:08 | 显示全部楼层
 

+ t1 q2 h. y. S" r+ s天天访问蓝光高清网  天天打卡  习惯了
回复

使用道具 举报

 
vwlapchi 发表于 2021-1-23 21:18:08 来自手机 | 显示全部楼层
 
第一次来这个论坛 多多发言 谢谢
回复

使用道具 举报

 
XIN1218 发表于 2021-1-29 22:29:01 | 显示全部楼层
 
非常感谢蓝光高清网分享的各种知识和资源,祝蓝光高清网越来越好
回复

使用道具 举报

 
您需要登录后才可以回帖 登录 | 立即注册

本版积分规则

0关注

2粉丝

93699帖子

  • 版块推荐
  • 百宝箱

电影推荐

更多+

热门电影

更多+

下载APP 签到更便捷

官方微信

手机APP

蓝光高清网

专注4k电影、4k视频、VR视频、高清电影、蓝光原盘资源

本站内容部分由用户自主分享和转载自互联网,转载目的在于传递更多信息,并不代表本网赞同其观点和对其真实性负责。

如有侵权、违反国家法律政策行为,请联系我们,我们会第一时间及时清除和处理!

举报反馈邮箱:lanniao@1080pro.net

Copyright   ©2019-2020  蓝光高清网    |网站地图