开通会员
全站资源畅享下载
4k原盘抢先下载
免高清币下载
会员用户组特权
开通会员
上传
收藏
首页
开启左侧

[4K 英剧] 傲慢与偏见 4k Pride.And.Prejudice.S01.2160p.美剧下载—49.81 GB

[复制链接]
蓝鸟 发表于 2021-1-20 10:44:03 | 显示全部楼层 |阅读模式 打印 上一主题 下一主题

傲慢与偏见(上映日期:90年代)4K(3840x2160)

简介《傲慢与偏见》是简·奥斯汀的代表作。这部作品曾多次被改编的电影,本片为英国BBC公司1995年出品。
  18世纪英国乡间班纳特家有五个女儿,班纳特太太整天焦躁不已,最大的心愿就是将女儿们一个个嫁出去。一日年青富家子宾利先生搬进城内的消息传来,令班纳特太太兴奋不已,希望大女儿简能获取宾利先生青睐。舞会上宾利果然看上了最漂亮的大小姐。而宾利的老友达西(柯林·菲尔斯 Colin Firth 饰)却天性傲慢,直言难与平民交往,更不屑与老二伊丽莎白跳舞(詹妮弗·艾莉 Jennifer Ehle 饰)。可不久达西对她活泼可爱的举止产生了好感。达西虽然欣赏伊丽莎白,却无法忍受她母亲及妹妹们粗俗无礼的举止,劝说宾利放弃娶简。宾格来和简因为误会,关系危在旦夕,伊丽莎白也因为这件事迁怒于达西。最终班纳特能否顺利嫁出五个女儿,宾格来与简、达西与伊丽莎白会不会从迷失中走来,缔...
导演西蒙·兰顿
主演科林·费尔斯 / 詹妮弗·艾莉 / 戴维·鲍姆伯 / 苏珊娜·哈克 / 茱莉亚·莎华拉
类型剧情 爱情 
地区英国
声道5.1声道
编码其他DD
状态第一季(完结)
评分豆瓣9.3分
 

加入蓝光高清网,轻松下载最新4k资源

您需要 登录 才可以下载或查看,没有帐号?立即注册

x
影片参数
傲慢与偏见 BBC版 / 傲慢与偏见(迷你剧) / Jane Austen's Pride and Prejudice/傲慢与偏见4k Pride.And.Prejudice.S01.2160p.WEBRip.x265.10bit.HDR.HLG.TrueHD.5.1.美剧下载
Video
ID : 1
Format : HEVC
Format/Info : High Efficiency Video Coding
Codec ID : V_MPEGH/ISO/HEVC
Duration : 53 min 15 s
Bit rate : 18.7 Mb/s
Width : 3 840 pixels
Height : 2 160 pixels
Display aspect ratio : 16:9
Frame rate mode : Constant
Frame rate : 25.000 FPS
Standard : Component
Color space : YUV
Chroma subsampling : 4:2:0
Bit depth : 10 bits
Bits/(Pixel*Frame) : 0.090
Stream size : 6.97 GiB (81%)
Title : MPEG-H HEVC Video / 18725 kbps / 2160p / 25.000 fps / 16:9 / Main 10 @ Level 5.1 @ Main / 4:2:0 / 10 bits / HLG / BT.2020
Language : English
Default : Yes
Forced : No
Color range : Limited
Color primaries : BT.2020
Transfer characteristics : HLG
transfer_characteristics_Original : HLG / BT.2020 (10-bit)
Matrix coefficients : BT.2020 non-constant


Audio #1
ID : 2
Format : MLP FBA
Format/Info : Meridian Lossless Packing FBA
Commercial name : Dolby TrueHD
Codec ID : A_TRUEHD
Duration : 53 min 17 s
Bit rate mode : Variable
Bit rate : 1 517 kb/s
Maximum bit rate : 2 100 kb/s
Channel(s) : 6 channels
Channel layout : L R C LFE Ls Rs
Sampling rate : 48.0 kHz
Frame rate : 1 200.000 FPS (40 SPF)
Compression mode : Lossless
Stream size : 578 MiB (7%)
Title : Dolby TrueHD Audio / 5.1 / 48 kHz / 1517 kbps / 16-bit
Language : English
Default : Yes
Forced : No


Audio #2
ID : 3
Format : AC-3
Format/Info : Audio Coding 3
Commercial name : Dolby Digital
Codec ID : A_AC3
Duration : 53 min 17 s
Bit rate mode : Constant
Bit rate : 448 kb/s
Channel(s) : 6 channels
Channel layout : L R C LFE Ls Rs
Sampling rate : 48.0 kHz
Frame rate : 31.250 FPS (1536 SPF)
Compression mode : Lossy
Stream size : 171 MiB (2%)
Title : Compatibility Track / Dolby Digital Audio / 5.1 / 48 kHz / 448 kbps
Language : English
Service kind : Complete Main
Default : No
Forced : No


Audio #3
ID : 4
Format : PCM
Format settings : Little / Signed
Codec ID : A_PCM/INT/LIT
Duration : 53 min 21 s
Bit rate mode : Constant
Bit rate : 2 304 kb/s
Channel(s) : 2 channels
Sampling rate : 48.0 kHz
Frame rate : 32.000 FPS (1500 SPF)
Bit depth : 24 bits
Delay relative to video : 13 ms
Stream size : 879 MiB (10%)
Title : Original Stereo Mix / LPCM 2.0 / 48 kHz / 2304 kbps / 24-bit
Language : English
Default : No
Forced : No


Text #1
ID : 5
Format : UTF-8
Codec ID : S_TEXT/UTF8
Codec ID/Info : UTF-8 Plain Text
Duration : 51 min 6 s
Bit rate : 71 b/s
Count of elements : 608
Stream size : 26.6 KiB (0%)
Language : English
Default : No
Forced : No


Text #2
ID : 6
Format : UTF-8
Codec ID : S_TEXT/UTF8
Codec ID/Info : UTF-8 Plain Text
Duration : 51 min 6 s
Bit rate : 72 b/s
Count of elements : 613
Stream size : 27.1 KiB (0%)
Title : SDH
Language : English
Default : No
Forced : No


Menu
00:00:00.880 : en:A good mans fortune
00:09:54.480 : en:A strong constitution
00:21:24.079 : enarty at Lucas Lodge
00:32:40.359 : en:Jane Takes Ill
00:39:51.679 : en:An Accomplished Woman
00:46:54.719 : en:A Man Without Fault
00:52:09.679 : en:End Credits


蓝光高清网提示您  点击下方附件名称  马上开始下载


傲慢与偏见 BBC版 / 傲慢与偏见(迷你剧) / Jane Austen's Pride and Prejudice/傲慢与偏见4k Pride.And.Prejudice.S01.2160p.WEBRip.x265.10bit.HDR.HLG.TrueHD.5.1.美剧下载

傲慢与偏见4k Pride.And.Prejudice.S01.2160p.WEBRip.x265.10bit.HDR.HLG.TrueHD.5.1.【49.81 GB】

傲慢与偏见4k Pride.And.Prejudice.S01.2160p.WEBRip.x265.10bit.HDR.HLG.True.torrent (文件大小:125.61 KB)


加入蓝光高清网VIP会员  无限制下载本站所有资源---点这里

资源下载、资源播放、字幕使用、无法下载等常见问题---点这里
回复

使用道具 举报

 

精彩评论5

正序浏览
gdlmxia 发表于 2021-1-20 14:18:38 | 显示全部楼层
 
太好啦&萬分感謝版主的無私發佈分享%
回复

使用道具 举报

 
feiyue 发表于 2021-1-20 20:50:56 | 显示全部楼层
 

好网站  希望越来越好
回复

使用道具 举报

 
ggang1 发表于 2021-1-26 10:52:24 | 显示全部楼层
 

好网站  希望越来越好
回复

使用道具 举报

 
ggang1 发表于 2021-1-28 13:18:25 | 显示全部楼层
 

天天访问蓝光高清网  天天打卡  习惯了
回复

使用道具 举报

 
zedlor 发表于 2021-2-7 01:37:33 来自手机 | 显示全部楼层
 
请问是修复版的吗?
回复

使用道具 举报

 
您需要登录后才可以回帖 登录 | 立即注册

本版积分规则

0关注

2粉丝

93698帖子

  • 版块推荐
  • 百宝箱

电影推荐

更多+

热门电影

更多+

下载APP 签到更便捷

官方微信

手机APP

蓝光高清网

专注4k电影、4k视频、VR视频、高清电影、蓝光原盘资源

本站内容部分由用户自主分享和转载自互联网,转载目的在于传递更多信息,并不代表本网赞同其观点和对其真实性负责。

如有侵权、违反国家法律政策行为,请联系我们,我们会第一时间及时清除和处理!

举报反馈邮箱:lanniao@1080pro.net

Copyright   ©2019-2020  蓝光高清网    |网站地图