开通会员
全站资源畅享下载
4k原盘抢先下载
免高清币下载
会员用户组特权
开通会员
上传
收藏
首页
开启左侧

[4K高清美剧] 走近皮克斯 4k Inside.Pixar.S01.2160p.美剧下载—6.02 GB

[复制链接]
蓝鸟 发表于 2021-1-20 10:48:04 | 显示全部楼层 |阅读模式 打印 上一主题 下一主题

走近皮克斯(上映日期:2020)4K(3840x2160)

简介《走近皮克斯》共有四个章节,共20集。这一系列纪录短片将带领大家深入了解皮克斯动画台前幕后的精彩故事。第一章“灵感”于2020年11月13日在Disney+上线,每集约12分钟。
  Produced by Pixar Animation Studios, Inside Pixar is directed by Erica Milsom and Tony Kaplan, the series offers insights into the personal and cinematic stories that provide an inside look into the people, artistry, and culture of Pixar Animation Studios.
导演Erica Milsom / Tony Kaplan
主演
类型纪录 
地区美国
声道5.1声道
编码其他DD
状态第一季(完结)
评分豆瓣9.1分
 

加入蓝光高清网,轻松下载最新4k资源

您需要 登录 才可以下载或查看,没有帐号?立即注册

x


影片参数
走进皮克斯/走近皮克斯4k Inside.Pixar.S01.2160p.DSNP.WEBRip.x265.10bit.HDR.DDP5.1.美剧下载
Video
ID : 1
Format : HEVC
Format/Info : High Efficiency Video Coding
Format profile : Main 10@L5@High
HDR format : SMPTE ST 2086, HDR10 compatible
Codec ID : V_MPEGH/ISO/HEVC
Duration : 12 min 50 s
Bit rate : 16.1 Mb/s
Width : 3 840 pixels
Height : 2 160 pixels
Display aspect ratio : 16:9
Frame rate mode : Constant
Frame rate : 23.976 (24000/1001) FPS
Color space : YUV
Chroma subsampling : 4:2:0
Bit depth : 10 bits
Bits/(Pixel*Frame) : 0.081
Stream size : 1.44 GiB (98%)
Language : English
Default : Yes
Forced : No
Color range : Limited
Color primaries : BT.2020
Transfer characteristics : PQ
Matrix coefficients : BT.2020 non-constant
Mastering display color primaries : BT.2020
Mastering display luminance : min: 0.0000 cd/m2, max: 1000 cd/m2


Audio
ID : 2
Format : E-AC-3
Format/Info : Enhanced AC-3
Commercial name : Dolby Digital Plus
Codec ID : A_EAC3
Duration : 12 min 50 s
Bit rate mode : Constant
Bit rate : 256 kb/s
Channel(s) : 6 channels
Channel layout : L R C LFE Ls Rs
Sampling rate : 48.0 kHz
Frame rate : 31.250 FPS (1536 SPF)
Compression mode : Lossy
Stream size : 23.5 MiB (2%)
Language : English
Service kind : Complete Main
Default : Yes
Forced : No


蓝光高清网提示您  点击下方附件名称  马上开始下载


走进皮克斯/走近皮克斯4k Inside.Pixar.S01.2160p.DSNP.WEBRip.x265.10bit.HDR.DDP5.1.美剧下载

走近皮克斯4k Inside.Pixar.S01.2160p.DSNP.WEBRip.x265.10bit.HDR.DDP5.1.【6.02 GB】

走近皮克斯4k Inside.Pixar.S01.2160p.DSNP.WEBRip.x265.10bit.HDR.DDP5.1-KOG.torrent (文件大小:30.94 KB)


加入蓝光高清网VIP会员  无限制下载本站所有资源---点这里

资源下载、资源播放、字幕使用、无法下载等常见问题---点这里
回复

使用道具 举报

 

精彩评论4

正序浏览
gdlmxia 发表于 2021-1-20 14:15:13 | 显示全部楼层
 
太好啦&萬分感謝版主的無私發佈分享%
回复

使用道具 举报

 
ggang1 发表于 2021-1-26 10:51:18 | 显示全部楼层
 
非常感谢蓝光高清网分享的各种知识和资源,祝蓝光高清网越来越好
回复

使用道具 举报

 
JeepMan 发表于 2021-1-28 13:16:44 | 显示全部楼层
 
感谢楼主的无私分享
回复

使用道具 举报

 
ggang1 发表于 2021-1-28 13:17:10 | 显示全部楼层
 

非常感谢蓝光高清网给大家的享乐4k,祝蓝光高清网越办越好!
回复

使用道具 举报

 
您需要登录后才可以回帖 登录 | 立即注册

本版积分规则

0关注

2粉丝

93704帖子

  • 版块推荐
  • 百宝箱

电影推荐

更多+

热门电影

更多+

下载APP 签到更便捷

官方微信

手机APP

蓝光高清网

专注4k电影、4k视频、VR视频、高清电影、蓝光原盘资源

本站内容部分由用户自主分享和转载自互联网,转载目的在于传递更多信息,并不代表本网赞同其观点和对其真实性负责。

如有侵权、违反国家法律政策行为,请联系我们,我们会第一时间及时清除和处理!

举报反馈邮箱:lanniao@1080pro.net

Copyright   ©2019-2020  蓝光高清网    |网站地图