[剧情] 诱惑法则/男女玩过界 The.Rules.of.Attraction.2002.1080p.BluRay.x264.DTS-FGT 10.06GB

[复制链接]
蓝鸟VIP会员 永久VIP 发表于 2019-8-21 22:40:58 | 显示全部楼层 |阅读模式 打印 上一主题 下一主题

马上注册,轻松下载,海量资源,让你轻松玩转社区。

您需要 登录 才可以下载或查看,没有帐号?立即注册

x

◎译  名 诱惑法则/男女玩过界/情爱磁场/残酷的诱惑
◎片  名 The Rules of Attraction
◎年  代 2002
◎国  家 美国/德国
◎类  别 喜剧/剧情/爱情/惊悚
◎语  言 英语/德语
◎上映日期 2003-01-16
◎IMDb评分  6.8/10 from 42,400 users
◎IMDb链接  http://www.imdb.com/title/tt0292644/
◎豆瓣评分 6.3/10 from 1,780 users
◎豆瓣链接 http://movie.douban.com/subject/1306008/
◎片  长 110 分钟
◎导  演 罗杰·阿夫瑞 Roger Avary
◎主  演 詹姆斯·范德比克 James Van Der Beek
      伊恩·萨默海尔德 Ian Somerhalder
      莎妮·索萨蒙 Shannyn Sossamon
      杰西卡·贝尔 Jessica Biel
      托马斯·伊恩·尼古拉斯 Thomas Ian Nicholas
      小克利夫顿·克林斯 Clifton Collins Jr.
◎简  介
  这个复杂而又混乱的故事发生在三个血气方刚的年轻人之间。肖恩(詹姆斯·范德比克 James Van Der Beek 饰)是个贩卖毒品的小贩,同时也是个双性恋者。一次偶然中,他发现自己的好友保罗(伊恩·萨默海尔德 Ian Somerhalder 饰)居然对他有意,而对于保罗的示爱,肖恩竟然并不十分反感。
  作为肖恩的前女友,劳伦(莎妮·索萨蒙 Shannyn Sossamon 饰)一直对保罗的性取向耿耿于怀,同时,肖恩狂放不羁的作风和英俊帅气的外表也让劳伦无法自持。随着时间的流逝,三人之间的关系渐渐奇妙起来,每一个人的心中都有深藏不露的过去与伤害,但却又不约而同的选择带上面具,肆意游走在性与欲望之间,游走在理智与情感的边缘。
Video
ID                                       : 1
Format                                   : AVC
Format/Info                              : Advanced Video Codec
Format profile                           : [email protected]
Format settings, CABAC                   : Yes
Format settings, ReFrames                : 4 frames
Codec ID                                 : V_MPEG4/ISO/AVC
Duration                                 : 1h 50mn
Bit rate                                 : 11.5 Mbps
Width                                    : 1 920 pixels
Height                                   : 1 080 pixels
Display aspect ratio                     : 16:9
Frame rate mode                          : Constant
Frame rate                               : 23.976 fps
Color space                              : YUV
Chroma subsampling                       : 4:2:0
Bit depth                                : 8 bits
Scan type                                : Progressive
Bits/(Pixel*Frame)                       : 0.231
Stream size                              : 8.69 GiB (86%)
Writing library                          : x264 core 115 r1995 c1e60b9
Encoding settings                        : cabac=1 / ref=4 / deblock=1:-3:-3 / analyse=0x3:0x113 / me=umh / subme=10 / psy=1 / psy_rd=0.90:0.00 / mixed_ref=1 / me_range=64 / chroma_me=1 / trellis=2 / 8x8dct=1 / cqm=0 / deadzone=21,11 / fast_pskip=1 / chroma_qp_offset=-2 / threads=9 / sliced_threads=0 / nr=0 / decimate=1 / interlaced=0 / bluray_compat=0 / constrained_intra=0 / bframes=6 / b_pyramid=2 / b_adapt=2 / b_bias=0 / direct=1 / weightb=1 / open_gop=0 / weightp=2 / keyint=250 / keyint_min=23 / scenecut=40 / intra_refresh=0 / rc=2pass / mbtree=0 / bitrate=11500 / ratetol=1.0 / qcomp=0.60 / qpmin=0 / qpmax=69 / qpstep=4 / cplxblur=20.0 / qblur=0.5 / ip_ratio=1.40 / pb_ratio=1.30 / aq=1:1.00 / zones=153493,159277,q=40
Language                                 : English
Default                                  : Yes
Forced                                   : No
Audio
ID                                       : 2
Format                                   : DTS
Format/Info                              : Digital Theater Systems
Mode                                     : 16
Format settings, Endianness              : Big
Codec ID                                 : A_DTS
Duration                                 : 1h 50mn
Bit rate mode                            : Constant
Bit rate                                 : 1 510 Kbps
Channel(s)                               : 6 channels
Channel positions                        : Front: L C R, Side: L R, LFE
Sampling rate                            : 48.0 KHz
Bit depth                                : 24 bits
Compression mode                         : Lossy
Delay relative to video                  : 11ms
Stream size                              : 1.17 GiB (12%)
Language                                 : English
Default                                  : Yes
Forced                                   : No
Text
ID                                       : 3
Format                                   : UTF-8
Codec ID                                 : S_TEXT/UTF8
Codec ID/Info                            : UTF-8 Plain Text
Language                                 : English
Default                                  : No
Forced                                   : No

精彩剧照


                                       

蓝光高清网提示您 点击下方附件名称 马上开始下载



温馨提示:
本站资源优先使用迅雷下载,迅雷会员下载,速度基本可以跑满宽带
如果遇到无资源或者版权问题无法下载,推荐使用115网盘离线下载(点击查看115网盘离线下载教程


  • 该资源需要您回复以后 刷新网页进行下载操作

  • 1、The.Rules.of.Attraction.2002.1080p.BluRay.x264.DTS-FGT.torrent 51KB 已下载 0 次

加入蓝光高清网VIP会员  无限制下载本站所有资源---点此加入

资源下载、资源播放、字幕使用、无法下载等常见问题---点这里

回复

使用道具 举报

懒得打字嘛,点击右侧快捷回复
高级模式
B Color Image Link Quote Code Smilies 上传

本版积分规则

关注0

粉丝0

帖子68439

发布主题
最新电影 论坛
广告位
联系我们
点击这里联系客服

服务时间:
周一到周日8:00-23:30

  • 打开微信扫一扫
    关注公众号

  • 手机QQ扫一扫
    添加客服

Archiver手机版蓝光高清网 ( 渝ICP备18006373号-2 )|网站地图

Powered by Discuz! X3.4  © 2001-2013 Comsenz Inc.