[喜剧] 你逃我也逃/生死大逃亡 To.Be.or.Not.to.Be.1983.1080p.BluRay.x264.DTS-FGT 10.34GB

[复制链接]
蓝鸟VIP会员 永久VIP 发表于 2019-8-21 22:45:01 | 显示全部楼层 |阅读模式 打印 上一主题 下一主题

马上注册,轻松下载,海量资源,让你轻松玩转社区。

您需要 登录 才可以下载或查看,没有帐号?立即注册

x


◎译  名 你逃我也逃/生死大逃亡/扮嘢奇兵
◎片  名 To Be or Not to Be
◎年  代 1983
◎国  家 美国
◎类  别 剧情/战争/喜剧
◎语  言 英语
◎上映日期 1983-12-16
◎IMDb评分  6.8/10 from 7,476 users
◎IMDb链接  http://www.imdb.com/title/tt0086450/
◎豆瓣评分 8.5/10 from 1,689 users
◎豆瓣链接 http://movie.douban.com/subject/1303285/
◎片  长 107 分钟
◎导  演 Alan Johnson
◎主  演 梅尔·布鲁克斯 Mel Brooks
      安妮·班克劳夫特 Anne Bancroft
      提姆·麦锡森 Tim Matheson
      查尔斯·德恩 Charles Durning
      克里斯托弗·洛伊德 Christopher Lloyd
◎简  介
  1936年,纳粹军队咱领了莱因兰,一炮未发;1938年3月,占领了奥地利,一炮未发;1939年占领了整个捷克斯洛伐克,还是一炮未发。欧洲处于二次世界大战的前夕,但波兰的布朗斯基剧院却忘记了他们的处境,仍然歌舞升平。在演员们感觉到战争的威胁的时候,剧院的老板兼主演的布朗斯基关心的只是他的戏剧和生意。而老板娘,也是整个城市最耀眼的女明星安娜也忙着和他的情人飞行员安德烈约会。
  但好景不长,在那不久,剧团接到了演出的禁令,因为他们的演出节目有反希特勒的内容。而飞行员安德烈也飞往英国继续展开对纳粹的战斗,但因为军人们的疏忽,一份印有他们亲人朋友名字的名单落到了间谍萨兰斯基教授的手里。这封可能会摧毁波兰抵抗运动组织的密信事关重大,安德烈受命回国处理此事。但因为安娜的名字在名单上,剧院也被牵扯进来。
  于是一群舞台剧演员在布朗斯基和他的妻子安娜的带领下,同纳粹展开了一场别开生面的斗争,并且通过他们的演出有力地支持着抵抗运动。为了妻子,布朗斯基冒着生命危险假扮成欧哈德上校,将间谍萨兰斯基教授诓骗到盖世太保办公室(其实是他的剧院),想诱使他交出那份波兰地下组织名单。教授起初不辨真伪,糊里糊涂将名单献给了“他的德国朋友”。
  然而,不明就里的教授谈起了布朗斯基与那名飞行员的“风流韵事”,布朗斯基妒火中烧,结果露出了马脚。教授这才恍然大悟,但为时已晚,演员们处决了这个卖国贼。虽然事情由些许漏洞,但演员们还是十分卖力的扮演各自的角色。甚至假扮希特勒蒙骗过当地的纳粹,最终,所有人乘坐飞机逃离了这个人间地狱。
  精彩视点:
  《生死大逃亡》改编自德国导演大师刘别谦曾经执导的著名黑色喜剧,开场戏乃公认的银幕经典。本片讲述第二次世界大战波兰沦陷期间,一群舞台演员和纳粹斗智斗勇,防止一个间谍把有关波兰的重要情报送到德国,保护了华沙地下抵抗组织,并且从纳粹眼皮底下成功地逃脱。剧中情节紧凑,笑料恒声,虽然年代已久,但看起来依然乐趣十足,宛如一出《虎口脱险》。片名出自《哈姆雷特》著名台词,是男主角梦寐以求表演的内容,影片表达了导演对二战的控诉。
◎获奖情况
  第56届奥斯卡金像奖 (1984)
  最佳男配角(提名) 查尔斯·德恩
Video
ID                                       : 1
Format                                   : AVC
Format/Info                              : Advanced Video Codec
Format profile                           : [email protected]
Format settings, CABAC                   : Yes
Format settings, ReFrames                : 4 frames
Codec ID                                 : V_MPEG4/ISO/AVC
Duration                                 : 1h 47mn
Bit rate                                 : 12.0 Mbps
Width                                    : 1 920 pixels
Height                                   : 1 040 pixels
Display aspect ratio                     : 1.85:1
Frame rate mode                          : Constant
Frame rate                               : 23.976 fps
Color space                              : YUV
Chroma subsampling                       : 4:2:0
Bit depth                                : 8 bits
Scan type                                : Progressive
Bits/(Pixel*Frame)                       : 0.251
Stream size                              : 9.01 GiB (87%)
Writing library                          : x264 core 89 r1471kMod 1144615
Encoding settings                        : cabac=1 / ref=4 / deblock=1:-3:-3 / analyse=0x3:0x133 / me=esa / subme=9 / psy=1 / psy_rd=1.00:0.00 / mixed_ref=1 / me_range=16 / chroma_me=1 / trellis=0 / 8x8dct=1 / cqm=0 / deadzone=4,4 / fast_pskip=0 / chroma_qp_offset=-2 / threads=3 / sliced_threads=0 / nr=0 / decimate=1 / interlaced=0 / constrained_intra=0 / bframes=5 / b_pyramid=2 / b_adapt=2 / b_bias=0 / direct=3 / wpredb=1 / wpredp=2 / keyint=250 / keyint_min=25 / scenecut=40 / intra_refresh=0 / rc=crf / mbtree=0 / crf=20.0000 / qcomp=0.80 / qpmin=10 / qpmax=51 / qpstep=4 / ip_ratio=1.20 / pb_ratio=1.20 / aq=1:0.50 / pulldown=0
Language                                 : English
Default                                  : Yes
Forced                                   : No
Audio
ID                                       : 2
Format                                   : DTS
Format/Info                              : Digital Theater Systems
Mode                                     : 16
Format settings, Endianness              : Big
Codec ID                                 : A_DTS
Duration                                 : 1h 47mn
Bit rate mode                            : Constant
Bit rate                                 : 1 509 Kbps
Channel(s)                               : 6 channels
Channel positions                        : Front: L C R, Side: L R, LFE
Sampling rate                            : 48.0 KHz
Bit depth                                : 24 bits
Compression mode                         : Lossy
Stream size                              : 1.13 GiB (11%)
Language                                 : English
Default                                  : Yes
Forced                                   : No
Text
ID                                       : 3
Format                                   : UTF-8
Codec ID                                 : S_TEXT/UTF8
Codec ID/Info                            : UTF-8 Plain Text
Language                                 : English
Default                                  : No
Forced                                   : No
Menu
00:00:00.000                             : en:Main Titles
00:02:08.337                             : en:The Bronsky Theatre
00:07:51.012                             : en:A Secret Admirer
00:08:27.799                             : en:Naughty Nazis
00:13:05.243                             : en:An Assignation
00:22:19.505                             : en:It\ s War!
00:26:34.384                             : en:Messages to Poland
00:29:34.481                             : en:Something Is Wrong
00:38:54.749                             : en:Nazi Headquarters
00:44:09.772                             : en:Sweetheart
00:47:04.363                             : en:The Gestapo
00:59:22.976                             : en:Another Siletski
01:08:14.716                             : en:Sasha
01:12:44.944                             : en:Back to Nazi H.Q.
01:17:31.856                             : en:An Imposter
01:26:07.454                             : en:A Command Performance
01:33:49.374                             : en:Another Suitor
01:35:52.038                             : en:At the Airport
01:40:23.684                             : en:Is This England?
01:43:12.853                             : en:End Titles

精彩剧照


                                       

蓝光高清网提示您 点击下方附件名称 马上开始下载



温馨提示:
本站资源优先使用迅雷下载,迅雷会员下载,速度基本可以跑满宽带
如果遇到无资源或者版权问题无法下载,推荐使用115网盘离线下载(点击查看115网盘离线下载教程


  • 该资源需要您回复以后 刷新网页进行下载操作

  • 1、To.Be.or.Not.to.Be.1983.1080p.BluRay.x264.DTS-FGT.torrent 52KB 已下载 0 次

加入蓝光高清网VIP会员  无限制下载本站所有资源---点此加入

资源下载、资源播放、字幕使用、无法下载等常见问题---点这里

回复

使用道具 举报

精彩评论1

zaqzdm 发表于 2019-8-21 22:48:24 | 显示全部楼层
不错不错,楼主您辛苦了。。。

加入蓝光高清网VIP会员  无限制下载本站所有资源---点此加入

资源下载、资源播放、字幕使用、无法下载等常见问题---点这里

回复

使用道具 举报

懒得打字嘛,点击右侧快捷回复
高级模式
B Color Image Link Quote Code Smilies 上传

本版积分规则

关注0

粉丝0

帖子69274

发布主题
最新电影 论坛
广告位
联系我们
点击这里联系客服

服务时间:
周一到周日8:00-23:30

  • 打开微信扫一扫
    关注公众号

  • 手机QQ扫一扫
    添加客服

Archiver手机版蓝光高清网 ( 渝ICP备18006373号-2 )|网站地图

Powered by Discuz! X3.4  © 2001-2013 Comsenz Inc.