[爱情] 失落的泪珠钻石 The.Loss.Of.A.Teardrop.Diamond.2008.1080p.BluRay.x264.DD5.1-FGT 7.95GB

[复制链接]
蓝鸟VIP会员 永久VIP 发表于 2019-8-21 22:45:49 | 显示全部楼层 |阅读模式 打印 上一主题 下一主题

马上注册,轻松下载,海量资源,让你轻松玩转社区。

您需要 登录 才可以下载或查看,没有帐号?立即注册

x


◎译  名 失落的泪珠钻石/失落的泪钻/泪洒金色豪门
◎片  名 The Loss of a Teardrop Diamond
◎年  代 2008
◎国  家 美国
◎类  别 剧情/爱情
◎语  言 英语
◎上映日期 2008-09-12
◎IMDb评分  5.9/10 from 1,567 users
◎IMDb链接  http://www.imdb.com/title/tt0896031/
◎豆瓣评分 6.4/10 from 324 users
◎豆瓣链接 http://movie.douban.com/subject/2028660/
◎片  长 USA: 102 分钟
◎导  演 茱迪·马克尔 Jodie Markell
◎主  演 克里斯·埃文斯 Chris Evans
      布莱丝·达拉斯·霍华德 Bryce Dallas Howard
      威尔·帕顿 Will Patton
      安·玛格丽特 Ann-Margret
      麦米·古默 Mamie Gummer
      Jessica Collins
◎简  介
  故事发生在上世纪20年代,费什尔是一个种植园主的女儿。从海外留学回来后,她爱上了英俊的农夫吉米,可是两人的地位背景悬殊。吉米的父亲是个酒鬼,母亲又有精神问题,而且正就职于费什尔家族种植园的一家商店。费什尔想像上流阶层那样拒绝吉米,以取悦掌握家族财政大权的老处女姑妈。但是这个决定让她非常痛苦。当费什尔丢了一颗钻石后,两人的关系更加紧张了……
Video
ID                                       : 1
Format                                   : AVC
Format/Info                              : Advanced Video Codec
Format profile                           : [email protected]
Format settings, CABAC                   : Yes
Format settings, ReFrames                : 5 frames
Codec ID                                 : V_MPEG4/ISO/AVC
Duration                                 : 1h 43mn
Bit rate                                 : 10.4 Mbps
Width                                    : 1 920 pixels
Height                                   : 816 pixels
Display aspect ratio                     : 2.35:1
Frame rate mode                          : Constant
Frame rate                               : 23.976 fps
Color space                              : YUV
Chroma subsampling                       : 4:2:0
Bit depth                                : 8 bits
Scan type                                : Progressive
Bits/(Pixel*Frame)                       : 0.277
Stream size                              : 7.33 GiB (92%)
Writing library                          : x264 core 104 r1713 c276662
Encoding settings                        : cabac=1 / ref=5 / deblock=1:0:0 / analyse=0x3:0x133 / me=umh / subme=7 / psy=1 / psy_rd=1.00:0.00 / mixed_ref=1 / me_range=16 / chroma_me=1 / trellis=1 / 8x8dct=1 / cqm=0 / deadzone=21,11 / fast_pskip=0 / chroma_qp_offset=-2 / threads=12 / sliced_threads=0 / nr=0 / decimate=1 / interlaced=0 / constrained_intra=0 / bframes=3 / b_pyramid=2 / b_adapt=1 / b_bias=0 / direct=1 / weightb=1 / open_gop=0 / weightp=2 / keyint=250 / keyint_min=23 / scenecut=40 / intra_refresh=0 / rc_lookahead=40 / rc=2pass / mbtree=1 / bitrate=10402 / ratetol=1.0 / qcomp=0.60 / qpmin=10 / qpmax=51 / qpstep=4 / cplxblur=20.0 / qblur=0.5 / ip_ratio=1.40 / aq=1:1.00
Language                                 : English
Default                                  : No
Forced                                   : No
Audio
ID                                       : 2
Format                                   : AC-3
Format/Info                              : Audio Coding 3
Mode extension                           : CM (complete main)
Format settings, Endianness              : Big
Codec ID                                 : A_AC3
Duration                                 : 1h 43mn
Bit rate mode                            : Constant
Bit rate                                 : 640 Kbps
Channel(s)                               : 6 channels
Channel positions                        : Front: L C R, Side: L R, LFE
Sampling rate                            : 48.0 KHz
Bit depth                                : 16 bits
Compression mode                         : Lossy
Stream size                              : 472 MiB (6%)
Language                                 : English
Default                                  : Yes
Forced                                   : No
Text
ID                                       : 3
Format                                   : UTF-8
Codec ID                                 : S_TEXT/UTF8
Codec ID/Info                            : UTF-8 Plain Text
Language                                 : English
Default                                  : No
Forced                                   : No

精彩剧照


                                       

蓝光高清网提示您 点击下方附件名称 马上开始下载



温馨提示:
本站资源优先使用迅雷下载,迅雷会员下载,速度基本可以跑满宽带
如果遇到无资源或者版权问题无法下载,推荐使用115网盘离线下载(点击查看115网盘离线下载教程


  • 该资源需要您回复以后 刷新网页进行下载操作

  • 1、The.Loss.Of.A.Teardrop.Diamond.2008.1080p.BluRay.x264.DD5.1-FGT.torrent 80KB 已下载 0 次

加入蓝光高清网VIP会员  无限制下载本站所有资源---点此加入

资源下载、资源播放、字幕使用、无法下载等常见问题---点这里

回复

使用道具 举报

懒得打字嘛,点击右侧快捷回复
高级模式
B Color Image Link Quote Code Smilies 上传

本版积分规则

关注0

粉丝0

帖子66703

发布主题
最新电影 论坛
广告位
联系我们
点击这里联系客服

服务时间:
周一到周日8:00-23:30

  • 打开微信扫一扫
    关注公众号

  • 手机QQ扫一扫
    添加客服

Archiver手机版蓝光高清网 ( 渝ICP备18006373号-2 )|网站地图

Powered by Discuz! X3.4  © 2001-2013 Comsenz Inc.