[剧情] 沙普的围攻 Sharpes.Siege.1996.1080p.BluRay.x264.DD5.1-FGT 6.77GB

[复制链接]
蓝鸟VIP会员 永久VIP 发表于 2019-8-21 22:46:38 | 显示全部楼层 |阅读模式 打印 上一主题 下一主题

马上注册,轻松下载,海量资源,让你轻松玩转社区。

您需要 登录 才可以下载或查看,没有帐号?立即注册

x


◎译  名 沙普的围攻
◎片  名 Sharpe s Seige (TV)
◎国  家 UK
◎语  言 English
◎上映日期 1996-05-08
◎IMDb评分  8.0/10 from 1,286 users
◎IMDb链接  http://www.imdb.com/title/tt0117622/
◎豆瓣评分 0/10 from 4 users
◎豆瓣链接 http://movie.douban.com/subject/1997968/
◎导  演 Tome Clegg
◎主  演 Sean Bean
      Daragh O Malley
      Abigail Cruttenden
◎简  介
  Winter 1813
  A pro-Bourbon Noble, the Compte de Maquerre is in Wellington s camp, arguing that Bordeaux is ripe for rebellion, but Maj. Gen. Ross is dubious.  He suggests using the Compte s castle, 60 miles behind enemy lines, as a base.  Maquerre is reluctant, saying his mother and sister had turned it over to Napoleon, so it must be captured.  Col. Horace Bampfylde is to lead the attack, with Sharpe in support.
  There is sickness in the camp and Maj. Gen. Ross and Sharpe s new wife, Jane, succumb to it.  The only cure is quinine which is in short supply.  When they reach the castle, Col. Bampylde wants the glory, he sends Sharpe, Capt. Frederickson and the Rifles scouting, so he can take the castle alone.  He fails in his mission, but gains heavy casualties.
  Sharpe sees what is happening from afar.  He infiltrates the camp and forces the French to surrender.  Bampfylde returns to the castle and sends Sharpe and his men away.  Maquerre returns with the mayor.  They tell Bampfylde that the region has changed sides, Gen. Calvet is on his way and Sharpe is dead.  Bampfylde is persuaded that he has accomplished his mission and returns to tell Wellington.
  Sharpe and his men ambush a French convoy and capture a small supply of quinine.  He also finds out that the region is far from ready to rise against Napoleon, and concludes that Maquerre is a double agent.  When he returns to the castle, he finds it deserted except for the wounded, along with Maquerre s sister and sick mother.  Gen. Calvet is heading towards the castle, and Sharpe and his men are desperately short of ammunition.
Video
ID                                       : 1
Format                                   : AVC
Format/Info                              : Advanced Video Codec
Format profile                           : [email protected]
Format settings, CABAC                   : Yes
Format settings, ReFrames                : 5 frames
Codec ID                                 : V_MPEG4/ISO/AVC
Duration                                 : 1h 41mn
Bit rate                                 : 8 879 Kbps
Width                                    : 1 920 pixels
Height                                   : 1 080 pixels
Display aspect ratio                     : 16:9
Frame rate mode                          : Constant
Frame rate                               : 25.000 fps
Color space                              : YUV
Chroma subsampling                       : 4:2:0
Bit depth                                : 8 bits
Scan type                                : Progressive
Bits/(Pixel*Frame)                       : 0.171
Stream size                              : 6.18 GiB (91%)
Writing library                          : x264 core 130 r2273 b3065e6
Encoding settings                        : cabac=1 / ref=5 / deblock=1:-3:-3 / analyse=0x3:0x133 / me=umh / subme=11 / psy=1 / psy_rd=1.00:0.10 / mixed_ref=1 / me_range=32 / chroma_me=1 / trellis=2 / 8x8dct=1 / cqm=0 / deadzone=21,11 / fast_pskip=1 / chroma_qp_offset=-3 / threads=6 / lookahead_threads=1 / sliced_threads=0 / nr=0 / decimate=1 / interlaced=0 / bluray_compat=0 / constrained_intra=0 / bframes=8 / b_pyramid=2 / b_adapt=2 / b_bias=0 / direct=3 / weightb=1 / open_gop=0 / weightp=2 / keyint=250 / keyint_min=25 / scenecut=40 / intra_refresh=0 / rc_lookahead=60 / rc=2pass / mbtree=1 / bitrate=8879 / ratetol=1.0 / qcomp=0.60 / qpmin=0 / qpmax=69 / qpstep=4 / cplxblur=20.0 / qblur=0.5 / ip_ratio=1.40 / aq=1:1.00
Language                                 : English
Default                                  : Yes
Forced                                   : No
Audio
ID                                       : 2
Format                                   : AC-3
Format/Info                              : Audio Coding 3
Mode extension                           : CM (complete main)
Format settings, Endianness              : Big
Codec ID                                 : A_AC3
Duration                                 : 1h 41mn
Bit rate mode                            : Constant
Bit rate                                 : 640 Kbps
Channel(s)                               : 6 channels
Channel positions                        : Front: L C R, Side: L R, LFE
Sampling rate                            : 48.0 KHz
Bit depth                                : 16 bits
Compression mode                         : Lossy
Stream size                              : 466 MiB (7%)
Language                                 : English
Default                                  : Yes
Forced                                   : No
Text
ID                                       : 3
Format                                   : UTF-8
Codec ID                                 : S_TEXT/UTF8
Codec ID/Info                            : UTF-8 Plain Text
Language                                 : English
Default                                  : No
Forced                                   : No
Menu
00:00:00.000                             : en:Chapter 01
00:00:57.870                             : en:Chapter 02
00:07:29.380                             : en:Chapter 03
00:19:19.020                             : en:Chapter 04
00:26:38.280                             : en:Chapter 05
00:34:58.000                             : en:Chapter 06
00:44:22.650                             : en:Chapter 07
00:59:03.760                             : en:Chapter 08
01:07:36.720                             : en:Chapter 09
01:14:51.840                             : en:Chapter 10
01:22:21.870                             : en:Chapter 11
01:29:33.760                             : en:Chapter 12
01:40:34.270                             : en:Chapter 13

精彩剧照


                                       

蓝光高清网提示您 点击下方附件名称 马上开始下载



温馨提示:
本站资源优先使用迅雷下载,迅雷会员下载,速度基本可以跑满宽带
如果遇到无资源或者版权问题无法下载,推荐使用115网盘离线下载(点击查看115网盘离线下载教程


  • 该资源需要您回复以后 刷新网页进行下载操作

  • 1、Sharpes.Siege.1996.1080p.BluRay.x264.DD5.1-FGT.torrent 68KB 已下载 0 次

加入蓝光高清网VIP会员  无限制下载本站所有资源---点此加入

资源下载、资源播放、字幕使用、无法下载等常见问题---点这里

回复

使用道具 举报

懒得打字嘛,点击右侧快捷回复
高级模式
B Color Image Link Quote Code Smilies 上传

本版积分规则

关注0

粉丝0

帖子66311

发布主题
最新电影 论坛
广告位
联系我们
点击这里联系客服

服务时间:
周一到周日8:00-23:30

  • 打开微信扫一扫
    关注公众号

  • 手机QQ扫一扫
    添加客服

Archiver手机版蓝光高清网 ( 渝ICP备18006373号-2 )|网站地图

Powered by Discuz! X3.4  © 2001-2013 Comsenz Inc.