[喜剧] 八美图/八个女人/八美千娇 8.Femmes.2002.FRENCH.1080p.BluRay.x264.DTS-FGT 10GB

[复制链接]
蓝鸟VIP会员 永久VIP 发表于 2019-8-21 22:49:05 | 显示全部楼层 |阅读模式 打印 上一主题 下一主题

马上注册,轻松下载,海量资源,让你轻松玩转社区。

您需要 登录 才可以下载或查看,没有帐号?立即注册

x


◎译  名 八美图/八个女人/八美千娇/8美图/8美千娇
◎片  名 8 femmes
◎年  代 2002
◎国  家 法国/意大利
◎类  别 喜剧/悬疑/歌舞
◎语  言 法语
◎上映日期 2002-02-06
◎IMDb评分  7.1/10 from 22,196 users
◎IMDb链接  http://www.imdb.com/title/tt0283832/
◎豆瓣评分 7.8/10 from 20,081 users
◎豆瓣链接 http://movie.douban.com/subject/1299292/
◎片  长 111 分钟
◎导  演 弗朗索瓦·欧容 Fran?ois Ozon
◎主  演 达尼尔·达黎欧 Danielle Darrieux
      凯瑟琳·德纳芙 Catherine Deneuve
      伊莎贝尔·于佩尔 Isabelle Huppert
      芬妮·阿尔丹 Fanny Ardant
      艾曼纽·贝阿 Emmanuelle Béart
      维吉妮·拉朵嫣 Virginie Ledoyen
      露迪芬·莎妮 Ludivine Sagnier
      Firmine Richard
      Dominique Lamure
◎简  介
  圣诞节前夕,一个富裕人家正在忙着筹备圣诞。窗外白雪皑皑,屋里迎来了女儿大学归来。一家人沉浸在圣诞前团聚的气氛。
  此时,大家以为作为一家之主的父亲还没有睡醒,谁知打开房门一开,他竟死在了睡床上,背后插着一把刀。众人惊慌失措,想报警之时却发现电话线早以被剪断;车已被蓄意破坏,无法开到警局。明显地,凶手就在这8人中间。彼此的猜忌和指控开始了,各人不为人知的秘密一一曝光,伦理道德的颠覆,贪婪自私的本性,令这个圣诞前夕特别混乱。讽刺的是,最后谁是凶手已经不重要了……
Video
ID                                       : 1
Format                                   : AVC
Format/Info                              : Advanced Video Codec
Format profile                           : [email protected]
Format settings, CABAC                   : Yes
Format settings, ReFrames                : 4 frames
Codec ID                                 : V_MPEG4/ISO/AVC
Duration                                 : 1h 50mn
Bit rate                                 : 11.4 Mbps
Width                                    : 1 920 pixels
Height                                   : 1 040 pixels
Display aspect ratio                     : 1.85:1
Frame rate mode                          : Constant
Frame rate                               : 24.000 fps
Color space                              : YUV
Chroma subsampling                       : 4:2:0
Bit depth                                : 8 bits
Scan type                                : Progressive
Bits/(Pixel*Frame)                       : 0.239
Stream size                              : 8.64 GiB (86%)
Writing library                          : x264 core 120 r2146 bcd41db
Encoding settings                        : cabac=1 / ref=4 / deblock=1:-2:-2 / analyse=0x3:0x113 / me=umh / subme=10 / psy=1 / psy_rd=1.20:0.20 / mixed_ref=1 / me_range=32 / chroma_me=1 / trellis=2 / 8x8dct=1 / cqm=0 / deadzone=21,11 / fast_pskip=0 / chroma_qp_offset=-3 / threads=9 / sliced_threads=0 / nr=0 / decimate=0 / interlaced=0 / bluray_compat=0 / constrained_intra=0 / bframes=5 / b_pyramid=2 / b_adapt=2 / b_bias=0 / direct=3 / weightb=1 / open_gop=0 / weightp=2 / keyint=240 / keyint_min=1 / scenecut=40 / intra_refresh=0 / rc_lookahead=72 / rc=2pass / mbtree=1 / bitrate=11436 / ratetol=1.0 / qcomp=0.60 / qpmin=10 / qpmax=51 / qpstep=4 / cplxblur=20.0 / qblur=0.5 / vbv_maxrate=38000 / vbv_bufsize=38000 / nal_hrd=none / ip_ratio=1.40 / aq=1:1.00
Language                                 : French
Default                                  : Yes
Forced                                   : No
Audio
ID                                       : 2
Format                                   : DTS
Format/Info                              : Digital Theater Systems
Mode                                     : 16
Format settings, Endianness              : Big
Codec ID                                 : A_DTS
Duration                                 : 1h 50mn
Bit rate mode                            : Constant
Bit rate                                 : 1 509 Kbps
Channel(s)                               : 6 channels
Channel positions                        : Front: L C R, Side: L R, LFE
Sampling rate                            : 48.0 KHz
Bit depth                                : 16 bits
Compression mode                         : Lossy
Stream size                              : 1.17 GiB (12%)
Language                                 : French
Default                                  : Yes
Forced                                   : No
Text
ID                                       : 3
Format                                   : UTF-8
Codec ID                                 : S_TEXT/UTF8
Codec ID/Info                            : UTF-8 Plain Text
Language                                 : English
Default                                  : Yes
Forced                                   : Yes
Menu
00:00:00.000                             : en:00:00:00.000
00:10:01.792                             : en:00:10:01.792
00:19:38.417                             : en:00:19:38.417
00:29:01.917                             : en:00:29:01.917
00:39:42.625                             : en:00:39:42.625
00:48:25.542                             : en:00:48:25.542
00:59:46.917                             : en:00:59:46.917
01:09:12.958                             : en:01:09:12.958
01:18:51.500                             : en:01:18:51.500
01:26:23.792                             : en:01:26:23.792
01:36:55.875                             : en:01:36:55.875
01:46:54.542                             : en:01:46:54.542

精彩剧照


                                       

蓝光高清网提示您 点击下方附件名称 马上开始下载



温馨提示:
本站资源优先使用迅雷下载,迅雷会员下载,速度基本可以跑满宽带
如果遇到无资源或者版权问题无法下载,推荐使用115网盘离线下载(点击查看115网盘离线下载教程


  • 该资源需要您回复以后 刷新网页进行下载操作

  • 1、8.Femmes.2002.FRENCH.1080p.BluRay.x264.DTS-FGT.torrent 51KB 已下载 0 次

加入蓝光高清网VIP会员  无限制下载本站所有资源---点此加入

资源下载、资源播放、字幕使用、无法下载等常见问题---点这里

回复

使用道具 举报

懒得打字嘛,点击右侧快捷回复
高级模式
B Color Image Link Quote Code Smilies 上传

本版积分规则

关注0

粉丝0

帖子66703

发布主题
最新电影 论坛
广告位
联系我们
点击这里联系客服

服务时间:
周一到周日8:00-23:30

  • 打开微信扫一扫
    关注公众号

  • 手机QQ扫一扫
    添加客服

Archiver手机版蓝光高清网 ( 渝ICP备18006373号-2 )|网站地图

Powered by Discuz! X3.4  © 2001-2013 Comsenz Inc.