[喜剧] 红粉世界/偎红绮翠 Viva.Las.Vegas.1964.1080p.BluRay.x264.DD5.1-FGT 7.69GB

[复制链接]
蓝鸟VIP会员 永久VIP 发表于 2019-8-21 22:51:31 | 显示全部楼层 |阅读模式 打印 上一主题 下一主题

马上注册,轻松下载,海量资源,让你轻松玩转社区。

您需要 登录 才可以下载或查看,没有帐号?立即注册

x


◎译  名 红粉世界/偎红绮翠(港)
◎片  名 Viva Las Vegas
◎年  代 1964
◎国  家 美国
◎类  别 喜剧/歌舞/爱情
◎语  言 英语
◎上映日期 1964-03-30
◎IMDb评分  6.3/10 from 4,442 users
◎IMDb链接  http://www.imdb.com/title/tt0058725/
◎豆瓣评分 6.9/10 from 40 users
◎豆瓣链接 http://movie.douban.com/subject/1298645/
◎片  长 85 分钟
◎导  演 乔治 薛尼 (George Sidney (II))
◎主  演 Elvis Presley ...  Lucky Jackson
      Ann-Margret ...  Rusty Martin
◎简  介
  猫王埃尔维斯·普雷斯利和安·玛格丽特二人合演,是一部典型的歌唱欢乐喜剧,片中充满歌舞、爱情、喜闹、赛车等情节。小镇的汽车修理工Lucky Jackson为了追求梦想,带着他的车到拉斯维加斯参加赛车大奖赛,对美丽性感的游泳教练Rusty Martin一见钟情。然而,他带的钱丢了,他也遭到情敌的种种阻碍。就在他以为将要同时失去爱情和梦想的时候,奇迹发生了,他的歌声为他带来了希望......在这部电影里,诞生了猫王的金曲《Viva Las Vegas》,这首歌也是猫王于60年代中期录制的最好的摇滚歌曲之一。虽然这首歌只进入告示牌排行榜的前30名,但全球销售量仍然超出100万张。虽然披头士在那一年几乎席卷歌坛,这首拉丁风味的曲子和哀泣的吉他演奏应足以让它登上冠军宝座,电台和观众何以会疏忽它仍是一个谜。这部影片的票房也不错,收入近600亿美元。
Video
ID                                       : 1
Format                                   : AVC
Format/Info                              : Advanced Video Codec
Format profile                           : [email protected]
Format settings, CABAC                   : Yes
Format settings, ReFrames                : 4 frames
Codec ID                                 : V_MPEG4/ISO/AVC
Duration                                 : 1h 24mn
Bit rate                                 : 12.3 Mbps
Width                                    : 1 920 pixels
Height                                   : 800 pixels
Display aspect ratio                     : 2.40:1
Frame rate mode                          : Constant
Frame rate                               : 23.976 fps
Color space                              : YUV
Chroma subsampling                       : 4:2:0
Bit depth                                : 8 bits
Scan type                                : Progressive
Bits/(Pixel*Frame)                       : 0.334
Stream size                              : 7.15 GiB (93%)
Writing library                          : x264 core 98 r1649 20cbe10
Encoding settings                        : cabac=1 / ref=4 / deblock=1:-3:-3 / analyse=0x3:0x113 / me=umh / subme=10 / psy=1 / psy_rd=0.90:0.05 / mixed_ref=1 / me_range=32 / chroma_me=1 / trellis=2 / 8x8dct=1 / cqm=0 / deadzone=21,11 / fast_pskip=0 / chroma_qp_offset=-3 / threads=6 / sliced_threads=0 / nr=0 / decimate=0 / interlaced=0 / constrained_intra=0 / bframes=7 / b_pyramid=2 / b_adapt=2 / b_bias=0 / direct=1 / weightb=1 / weightp=2 / keyint=250 / keyint_min=25 / scenecut=40 / intra_refresh=0 / rc=2pass / mbtree=0 / bitrate=12318 / ratetol=1.0 / qcomp=0.60 / qpmin=10 / qpmax=51 / qpstep=4 / cplxblur=20.0 / qblur=0.5 / ip_ratio=1.40 / pb_ratio=1.30 / aq=1:0.80
Language                                 : English
Default                                  : No
Forced                                   : No
Audio
ID                                       : 2
Format                                   : AC-3
Format/Info                              : Audio Coding 3
Mode extension                           : CM (complete main)
Format settings, Endianness              : Big
Codec ID                                 : A_AC3
Duration                                 : 1h 24mn
Bit rate mode                            : Constant
Bit rate                                 : 640 Kbps
Channel(s)                               : 6 channels
Channel positions                        : Front: L C R, Side: L R, LFE
Sampling rate                            : 48.0 KHz
Bit depth                                : 16 bits
Compression mode                         : Lossy
Stream size                              : 389 MiB (5%)
Language                                 : English
Default                                  : Yes
Forced                                   : No
Text
ID                                       : 3
Format                                   : ASS
Codec ID                                 : S_TEXT/ASS
Codec ID/Info                            : Advanced Sub Station Alpha
Compression mode                         : Lossless
Language                                 : English
Default                                  : No
Forced                                   : No
Menu
00:00:00.000                             : en:00:00:00.000
00:02:19.139                             : en:00:02:19.139
00:06:22.840                             : en:00:06:22.840
00:09:51.382                             : en:00:09:51.382
00:14:01.465                             : en:00:14:01.465
00:16:00.417                             : en:00:16:00.417
00:22:51.995                             : en:00:22:51.995
00:25:40.455                             : en:00:25:40.455
00:29:41.196                             : en:00:29:41.196
00:35:48.896                             : en:00:35:48.896
00:37:26.035                             : en:00:37:26.035
00:39:08.596                             : en:00:39:08.596
00:41:56.972                             : en:00:41:56.972
00:46:41.715                             : en:00:46:41.715
00:52:34.568                             : en:00:52:34.568
00:55:03.883                             : en:00:55:03.883
00:59:49.961                             : en:00:59:49.961
01:02:41.090                             : en:01:02:41.090
01:05:17.788                             : en:01:05:17.788
01:08:25.392                             : en:01:08:25.392
01:10:49.662                             : en:01:10:49.662
01:13:28.404                             : en:01:13:28.404
01:17:11.376                             : en:01:17:11.376
01:21:49.446                             : en:01:21:49.446

精彩剧照


                                       

蓝光高清网提示您 点击下方附件名称 马上开始下载



温馨提示:
本站资源优先使用迅雷下载,迅雷会员下载,速度基本可以跑满宽带
如果遇到无资源或者版权问题无法下载,推荐使用115网盘离线下载(点击查看115网盘离线下载教程


  • 该资源需要您回复以后 刷新网页进行下载操作

  • 1、Viva.Las.Vegas.1964.1080p.BluRay.x264.DD5.1-FGT.torrent 77KB 已下载 0 次

加入蓝光高清网VIP会员  无限制下载本站所有资源---点此加入

资源下载、资源播放、字幕使用、无法下载等常见问题---点这里

回复

使用道具 举报

懒得打字嘛,点击右侧快捷回复
高级模式
B Color Image Link Quote Code Smilies 上传

本版积分规则

关注0

粉丝0

帖子69282

发布主题
最新电影 论坛
广告位
联系我们
点击这里联系客服

服务时间:
周一到周日8:00-23:30

  • 打开微信扫一扫
    关注公众号

  • 手机QQ扫一扫
    添加客服

Archiver手机版蓝光高清网 ( 渝ICP备18006373号-2 )|网站地图

Powered by Discuz! X3.4  © 2001-2013 Comsenz Inc.