[喜剧] 女人城/城市女郎 City.of.Women.1980.ITALIAN.1080p.BluRay.x264.DTS-FGT 11.65GB

[复制链接]
蓝鸟VIP会员 永久VIP 发表于 2019-8-21 22:53:58 | 显示全部楼层 |阅读模式 打印 上一主题 下一主题

马上注册,轻松下载,海量资源,让你轻松玩转社区。

您需要 登录 才可以下载或查看,没有帐号?立即注册

x


◎译  名 女人城/城市女郎
◎片  名 La città delle donne
◎年  代 1980
◎国  家 意大利/法国
◎类  别 喜剧/剧情
◎语  言 意大利语
◎上映日期 1980-10-24
◎豆瓣评分 7.8/10 from 812 users
◎豆瓣链接 http://movie.douban.com/subject/1296183/
◎片  长 139 分钟
◎导  演 费德里科·费里尼 Federico Fellini
◎主  演 马塞洛·马斯楚安尼 Marcello Mastroianni
      安娜·普鲁克瑙 Anna Prucnal
      Bernice Stegers
      Donatella Damiani
      Jole Silvani
◎简  介
  人到中年,纳珀拉斯(马塞洛·马斯楚安尼 Marcello Mastroianni 饰)开始体会到了人生的无奈和命运的无常。一日,在一列火车上,纳珀拉斯遇见了一个长相美艳的女子,他深深的为女子的美艳所着迷,女子似乎也对纳珀拉斯颇为中意,正在两人情意绵绵之时,女子却突然走下了停止的火车,惊讶的纳珀拉斯尾随其后。
  追随着女子的脚步,纳珀拉斯来到了一家大饭店,走进饭店,展现在纳珀拉斯面前的是一个名符其实的“女人城”。在这座女人城里,纳珀拉斯经历了一番充满了痛苦的奇异旅程,在质疑、拷问和折磨之间,纳珀拉斯早已经无法分辨,这里的一切究竟是梦境还是现实。
Video
ID                                       : 1
Format                                   : AVC
Format/Info                              : Advanced Video Codec
Format profile                           : [email protected]
Format settings, CABAC                   : Yes
Format settings, ReFrames                : 4 frames
Codec ID                                 : V_MPEG4/ISO/AVC
Duration                                 : 2h 19mn
Bit rate                                 : 11.2 Mbps
Width                                    : 1 920 pixels
Height                                   : 1 036 pixels
Display aspect ratio                     : 1.85:1
Frame rate mode                          : Constant
Frame rate                               : 24.000 fps
Color space                              : YUV
Chroma subsampling                       : 4:2:0
Bit depth                                : 8 bits
Scan type                                : Progressive
Bits/(Pixel*Frame)                       : 0.235
Stream size                              : 10.7 GiB (92%)
Writing library                          : x264 core 120 r2164 da19765
Encoding settings                        : cabac=1 / ref=4 / deblock=1:-3:-3 / analyse=0x3:0x113 / me=umh / subme=11 / psy=1 / psy_rd=1.05:0.10 / mixed_ref=1 / me_range=48 / chroma_me=1 / trellis=2 / 8x8dct=1 / cqm=0 / deadzone=21,11 / fast_pskip=0 / chroma_qp_offset=-4 / threads=24 / sliced_threads=0 / nr=0 / decimate=1 / interlaced=0 / bluray_compat=0 / constrained_intra=0 / bframes=8 / b_pyramid=2 / b_adapt=2 / b_bias=0 / direct=3 / weightb=1 / open_gop=0 / weightp=2 / keyint=346 / keyint_min=24 / scenecut=40 / intra_refresh=0 / rc_lookahead=60 / rc=2pass / mbtree=1 / bitrate=11208 / ratetol=1.0 / qcomp=0.60 / qpmin=0 / qpmax=69 / qpstep=4 / cplxblur=20.0 / qblur=0.5 / vbv_maxrate=40000 / vbv_bufsize=30000 / nal_hrd=none / ip_ratio=1.40 / aq=1:0.90
Language                                 : Italian
Default                                  : Yes
Forced                                   : No
Audio
ID                                       : 2
Format                                   : DTS
Format/Info                              : Digital Theater Systems
Mode                                     : 16
Format settings, Endianness              : Big
Codec ID                                 : A_DTS
Duration                                 : 2h 19mn
Bit rate mode                            : Constant
Bit rate                                 : 768 Kbps
Channel(s)                               : 1 channel
Channel positions                        : Front: C
Sampling rate                            : 48.0 KHz
Bit depth                                : 24 bits
Compression mode                         : Lossy
Stream size                              : 765 MiB (6%)
Language                                 : Italian
Default                                  : Yes
Forced                                   : No
Text
ID                                       : 3
Format                                   : UTF-8
Codec ID                                 : S_TEXT/UTF8
Codec ID/Info                            : UTF-8 Plain Text
Language                                 : English
Default                                  : Yes
Forced                                   : Yes

精彩剧照


                                       

蓝光高清网提示您 点击下方附件名称 马上开始下载



温馨提示:
本站资源优先使用迅雷下载,迅雷会员下载,速度基本可以跑满宽带
如果遇到无资源或者版权问题无法下载,推荐使用115网盘离线下载(点击查看115网盘离线下载教程


  • 该资源需要您回复以后 刷新网页进行下载操作

  • 1、City.of.Women.1980.ITALIAN.1080p.BluRay.x264.DTS-FGT.torrent 59KB 已下载 0 次

加入蓝光高清网VIP会员  无限制下载本站所有资源---点此加入

资源下载、资源播放、字幕使用、无法下载等常见问题---点这里

回复

使用道具 举报

懒得打字嘛,点击右侧快捷回复
高级模式
B Color Image Link Quote Code Smilies 上传

本版积分规则

关注0

粉丝0

帖子69274

发布主题
最新电影 论坛
广告位
联系我们
点击这里联系客服

服务时间:
周一到周日8:00-23:30

  • 打开微信扫一扫
    关注公众号

  • 手机QQ扫一扫
    添加客服

Archiver手机版蓝光高清网 ( 渝ICP备18006373号-2 )|网站地图

Powered by Discuz! X3.4  © 2001-2013 Comsenz Inc.