游客您好
第三方账号登陆
  • 点击联系客服

    在线时间:9:00-18:00

    客服QQ

    1371333023

    电子邮件

    lanniao@1080pro.net
  • 烧友之家APP

    随时掌握烧友资讯

  • 扫描二维码

    关注微信公众号

推荐阅读
蓝鸟
未知星球 | 未知职业
  • 关注0
  • 粉丝2
  • 帖子93857
精选帖子
开启左侧

完美星球 4k A.Perfect.Planet.S01.2160p.纪录片美剧下载—48.68 GB

[复制链接]
蓝鸟 发表于 2021-2-4 21:51:39 | 显示全部楼层 |阅读模式 打印 上一主题 下一主题
完美星球
上映时间:2020年
类型:记录 
地区:英国 
导演:大卫·爱登堡
主演:
画质标准:4K HDR  封装音轨:Dolby Atmos 
豆瓣评分:9.2分

加入蓝光高清网,轻松下载最新4k资源

您需要 登录 才可以下载或查看,没有帐号?立即注册

x
本帖最后由 蓝鸟 于 2021-2-4 21:54 编辑
$ Y/ a) P, `& j1 u3 ~
/ h4 B! K9 x, l7 G# H, i% t. @; q- s) c
. D  A/ j; b1 n5 B! w4 r. G0 R7 V$ q
影片参数7 w9 e9 w9 }  \% N) [  x
完美星球4k A.Perfect.Planet.S01.2160p.UHD.BluRay.x265.10bit.HDR.TrueHD.7.1.Atmos.纪录片美剧信息
9 U. y9 V" X7 m7 S+ UVideo/ w/ Q# X% _. U8 F2 G
ID : 1
# ]: J; I4 e" w4 v- i2 ?Format : HEVC1 U$ i. w& W6 u
Format/Info : High Efficiency Video Coding( \, E$ P9 K' @7 n
Format profile : Main 10@L5.1@High, L4 L" c5 ]4 p, C5 u
HDR format : SMPTE ST 2086, HDR10 compatible/ V& t0 U3 m: V5 X* G% o* K: Y
Codec ID : V_MPEGH/ISO/HEVC
8 S' x7 D) ]0 q9 SDuration : 1 h 0 min! {) A. f# G- g' D* N
Bit rate : 21.1 Mb/s
# {) J* I5 |& }Width : 3 840 pixels
* Z) x" w2 e: j9 ], K7 THeight : 2 160 pixels8 ]8 Q5 t- u1 `/ v
Display aspect ratio : 16:9
$ M6 s" C" S$ Y+ q4 u4 H2 L5 @Frame rate mode : Constant
- \% |+ k& a8 \9 i& n. G+ }Frame rate : 23.976 (24000/1001) FPS. {3 w1 N. W9 O
Color space : YUV/ a9 A5 m) M( ^/ J' S
Chroma subsampling : 4:2:0 (Type 2)6 b. [- g4 R/ d- R- j9 n
Bit depth : 10 bits
  T6 Y* W: J4 A5 c9 NBits/(Pixel*Frame) : 0.106  f) Q  f% R' s% J
Stream size : 8.91 GiB (81%)/ k. N6 _7 c% q" k
Writing library : x265 3.4+12-g9103319fc:[Windows][MSVC 1900][64 bit] 10bit
+ G( @' X, S5 ?+ i5 REncoding settings : cpuid=1176575 / frame-threads=6 / numa-pools=32 / wpp / no-pmode / no-pme / no-psnr / no-ssim / log-level=2 / input-csp=1 / input-res=3840x2160 / interlace=0 / total-frames=86831 / level-idc=51 / high-tier=1 / uhd-bd=0 / ref=4 / no-allow-non-conformance / repeat-headers / annexb / aud / hrd / info / hash=0 / no-temporal-layers / no-open-gop / min-keyint=23 / keyint=250 / gop-lookahead=0 / bframes=4 / b-adapt=2 / b-pyramid / bframe-bias=0 / rc-lookahead=25 / lookahead-slices=4 / scenecut=40 / hist-scenecut=0 / radl=0 / no-splice / no-intra-refresh / ctu=64 / min-cu-size=8 / rect / no-amp / max-tu-size=32 / tu-inter-depth=1 / tu-intra-depth=1 / limit-tu=0 / rdoq-level=2 / dynamic-rd=0.00 / no-ssim-rd / signhide / no-tskip / nr-intra=0 / nr-inter=0 / no-constrained-intra / no-strong-intra-smoothing / max-merge=3 / limit-refs=3 / limit-modes / me=3 / subme=3 / merange=57 / temporal-mvp / no-frame-dup / no-hme / weightp / no-weightb / no-analyze-src-pics / deblock=-3:-3 / no-sao / no-sao-non-deblock / rd=4 / selective-sao=0 / no-early-skip / rskip / no-fast-intra / no-tskip-fast / no-cu-lossless / no-b-intra / no-splitrd-skip / rdpenalty=0 / psy-rd=2.00 / psy-rdoq=1.00 / no-rd-refine / no-lossless / cbqpoffs=0 / crqpoffs=0 / rc=crf / crf=16.0 / qcomp=0.60 / qpstep=4 / stats-write=0 / stats-read=0 / vbv-maxrate=160000 / vbv-bufsize=160000 / vbv-init=0.9 / crf-max=0.0 / crf-min=0.0 / ipratio=1.40 / pbratio=1.30 / aq-mode=2 / aq-strength=0.80 / cutree / zone-count=0 / no-strict-cbr / qg-size=32 / no-rc-grain / qpmax=69 / qpmin=0 / no-const-vbv / sar=1 / overscan=0 / videoformat=5 / range=0 / colorprim=9 / transfer=16 / colormatrix=9 / chromaloc=1 / chromaloc-top=2 / chromaloc-bottom=2 / display-window=0 / master-display=G(13250,34500)B(7500,3000)R(34000,16000)WP(15635,16450)L(10000000,50) / cll=1001,444 / min-luma=0 / max-luma=1023 / log2-max-poc-lsb=8 / vui-timing-info / vui-hrd-info / slices=1 / no-opt-qp-pps / no-opt-ref-list-length-pps / no-multi-pass-opt-rps / scenecut-bias=0.05 / hist-threshold=0.01 / no-opt-cu-delta-qp / no-aq-motion / hdr10 / hdr10-opt / no-dhdr10-opt / no-idr-recovery-sei / analysis-reuse-level=0 / analysis-save-reuse-level=0 / analysis-load-reuse-level=0 / scale-factor=0 / refine-intra=0 / refine-inter=0 / refine-mv=1 / refine-ctu-distortion=0 / no-limit-sao / ctu-info=0 / no-lowpass-dct / refine-analysis-type=0 / copy-pic=1 / max-ausize-factor=1.0 / no-dynamic-refine / no-single-sei / no-hevc-aq / no-svt / no-field / qp-adaptation-range=1.00 / no-scenecut-aware-qpconformance-window-offsets / right=0 / bottom=0 / decoder-max-rate=0* E4 \! g0 c' T/ w$ Y) l
Default : Yes
1 X" W' ]' N9 `% T) tForced : No
$ c0 ?* T" ]- iColor range : Limited
  Q. P' F  `. qColor primaries : BT.2020* l. Y% S% |, c3 K* S' Q4 o, I
Transfer characteristics : PQ
6 |2 D2 U/ o. a7 |1 M% B9 V6 C" JMatrix coefficients : BT.2020 non-constant1 w9 D* Z8 b* A) _: b' J
Mastering display color primaries : Display P3
* c% q! P4 Z$ T- mMastering display luminance : min: 0.0050 cd/m2, max: 1000 cd/m2" R( [4 b" b- F% [+ C
Maximum Content Light Level : 1001 cd/m2
, i  V% K  ?& O' bMaximum Frame-Average Light Level : 444 cd/m2
3 M! P7 r: p8 y! v, Y. f+ K6 F2 x7 }, Q

) P  ?; E* q  Q4 e: D2 OAudio #1
& \; c! f0 [1 H; [3 x0 IID : 2: o* s( E6 ]; S; x9 R
Format : MLP FBA 16-ch8 i' W6 }: r6 g
Format/Info : Meridian Lossless Packing FBA with 16-channel presentation  @0 g3 A1 ~( o6 E
Commercial name : Dolby TrueHD with Dolby Atmos
! |* d) Y3 V3 n( ^, nCodec ID : A_TRUEHD# z7 G. }4 @- W% {* ?; k+ {
Duration : 1 h 0 min8 q2 t- ]* ]5 V4 I9 \
Bit rate mode : Variable! T, R( [* q' c% M9 C
Bit rate : 4 361 kb/s! H# @8 O5 u4 k8 A; g3 `
Maximum bit rate : 6 987 kb/s
: u$ l8 G6 `" h0 i  V9 S% h8 ZChannel(s) : 8 channels
  Q5 |" }! f6 `: s* TChannel layout : L R C LFE Ls Rs Lb Rb
' c! _+ X0 j" X& ASampling rate : 48.0 kHz
% F# O' I3 K% n  U" O# [& nFrame rate : 1 200.000 FPS (40 SPF)/ C9 t0 A) c# p" l
Compression mode : Lossless
% _  @7 A0 C+ _Stream size : 1.84 GiB (17%)
) m' w4 F" W& L0 sTitle : Atmos 7.10 q& [- C9 p, [. g$ X: {
Language : English2 K$ U* c8 @% B5 G
Default : Yes
- B2 q+ U: O! I" x( J8 p( w: G% m/ `; oForced : No$ X: [' T. [  u6 p+ `* F1 d
Number of dynamic objects : 11. E) i7 u# z0 j% M; Y
Bed channel count : 1 channel# r& v$ d( T+ ]5 G% k8 g) t! w
Bed channel configuration : LFE
$ H' G# t% `# ^- |) O2 @. N' u; B' R2 R% J
. x& M& z* U& N3 E7 \0 O. L4 Z
Audio #2
5 R' L5 J( k' [. k  a, }9 AID : 3
! D% z3 K4 r- A* Z' h- I) jFormat : AC-3$ k. @4 z/ Q  u3 }: D& A
Format/Info : Audio Coding 3- w  l- H3 g' z/ f4 l. G
Commercial name : Dolby Digital6 l$ v( i  g$ ?+ z4 G* B/ m
Codec ID : A_AC3
) z# G! x* z$ X9 Q; t' v6 \Duration : 1 h 0 min
: B# }' M. M* BBit rate mode : Constant8 j7 ], L7 S0 h+ ?8 y8 _
Bit rate : 640 kb/s
- p4 M8 r2 [5 OChannel(s) : 6 channels( y/ a! Y3 b3 o* {$ h! \0 T
Channel layout : L R C LFE Ls Rs5 U' f) z! z; N* J6 z. S" c/ W  b
Sampling rate : 48.0 kHz4 T3 C1 \0 r( \
Frame rate : 31.250 FPS (1536 SPF): u* ~' D2 ^5 D  z1 t- V# o
Compression mode : Lossy
& g, y- N/ O5 R- u+ Y  ~" GStream size : 276 MiB (2%)
. @9 A! S( k# M3 c& T& @Title : AC-3 5.1& Z7 O( V8 a5 k3 N6 B5 d( x  l, ^' c
Language : English
6 g- P  S0 r9 h  c8 x- X# iService kind : Complete Main
/ }% g2 C3 C  D- h7 R1 FDefault : No7 A; V! }6 z) \" R: |/ U
Forced : No

- l9 P' O7 |+ W# j6 ~  k3 ]蓝光高清网提示您  点击下方附件名即可开始下载
  |$ B4 I- q$ S. o* h
- ~1 T% H8 R7 c0 h/ K0 w
- J3 L" e7 _: q$ ^" e: d
完美星球4k A.Perfect.Planet.S01.2160p.UHD.BluRay.x265.10bit.HDR.TrueHD.7.1.Atmos.纪录片美剧下载. j" ?* j1 W5 Q6 ]! q
$ }$ h2 |( T$ f" g% n- s* u9 b
完美星球4k A.Perfect.Planet.S01.2160p.UHD.BluRay.x265.10bit.HDR.TrueHD.7.1.Atmos.【48.68 GB】
7 g8 ~8 m: ^! v; m4 k
3 z0 R4 U6 Z5 } 完美星球4k A.Perfect.Planet.S01.2160p.UHD.BluRay.x265.10bit.HDR.TrueHD.7..torrent (文件大小:122.62 KB)
加入蓝光高清网VIP会员  无限制下载本站所有资源---点这里

资源下载、资源播放、字幕使用、无法下载等常见问题---点这里
回复

使用道具 举报

精彩评论4

gdlmxia 发表于 2021-2-5 08:28:52 | 显示全部楼层
太好啦&萬分感謝版主的無私發佈分享%
回复 支持 反对

使用道具 举报

ggang1 发表于 2021-2-5 12:55:24 | 显示全部楼层

! I. S2 `+ I  l% Z8 c$ }% Y) @天天访问蓝光高清网  天天打卡  习惯了
回复 支持 反对

使用道具 举报

ggang1 发表于 2021-2-7 11:43:22 | 显示全部楼层
非常感谢蓝光高清网分享的各种知识和资源,祝蓝光高清网越来越好
回复 支持 反对

使用道具 举报

sgz666 发表于 2021-2-27 18:44:07 来自手机 | 显示全部楼层
感谢分享 好东西
回复 支持 反对

使用道具 举报

您需要登录后才可以回帖 登录 | 立即注册

本版积分规则

烧友之家(蓝光高清网)本站内容部分由用户自主分享和转载自互联网,转载目的在于传递更多信息,并不代表本网赞同其观点和对其真实性负责。 如有侵权、违反国家法律政策行为,请联系我们,我们会第一时间及时清除和处理!
蓝光高清网 综合资讯平台
关注我们
  • 官方微信公众号
  • 扫码下载官方APP

X3.4 Licensed© 2001-2013 蓝光高清网 烧友之家APP |网站地图