开通会员
全站资源畅享下载
4k原盘抢先下载
免高清币下载
会员用户组特权
开通会员
上传
收藏
首页
开启左侧

[4K高清美剧] 史努比秀4k The.Snoopy.Show.S01.2160p.ATVP.WEB-DL.x265.10bit.HDR.DD5.1.美剧下载—22.20 GB

[复制链接]
蓝鸟 发表于 2021-2-6 08:55:55 | 显示全部楼层 |阅读模式 打印 上一主题 下一主题

史努比秀(上映日期:2021)4K(3840x2160)

简介  全球最具知名度的狗狗,即将成为镁光灯焦点!现在就和这只喜欢开心跳舞、想飞上蓝天和充满梦想的比格犬,还有它最好的朋友糊涂塌客,以及《花生漫画》的其他伙伴一起展开新的冒险吧!
导演海蒂·克拉格滕 / 伊森·普焦托 / Terry McGurrin / 罗伯特·丁克勒
主演
类型喜剧 动作 动画 冒险 
地区美国
声道5.1声道
编码其他DD
状态第一季(完结)
评分豆瓣8.2分
 

加入蓝光高清网,轻松下载最新4k资源

您需要 登录 才可以下载或查看,没有帐号?立即注册

x


影片参数
史诺比开骚(港) / 史努比欢乐秀(台)/史努比秀4k The.Snoopy.Show.S01.2160p.ATVP.WEB-DL.x265.10bit.HDR.DD5.1.美剧信息
Video
ID : 1
Format : HEVC
Format/Info : High Efficiency Video Coding
Format profile : Main 10@L5@High
HDR format : SMPTE ST 2086, HDR10 compatible
Codec ID : V_MPEGH/ISO/HEVC
Duration : 22 min 31 s
Bit rate : 23.8 Mb/s
Width : 3 840 pixels
Height : 2 160 pixels
Display aspect ratio : 16:9
Frame rate mode : Constant
Frame rate : 23.976 (24000/1001) FPS
Color space : YUV
Chroma subsampling : 4:2:0 (Type 2)
Bit depth : 10 bits
Bits/(Pixel*Frame) : 0.119
Stream size : 3.74 GiB (98%)
Language : English
Default : Yes
Forced : No
Color range : Limited
Color primaries : BT.2020
Transfer characteristics : PQ
Matrix coefficients : BT.2020 non-constant
Mastering display color primaries : Display P3
Mastering display luminance : min: 0.0050 cd/m2, max: 1000 cd/m2
Maximum Content Light Level : 493 cd/m2
Maximum Frame-Average Light Level : 200 cd/m2


Audio
ID : 2
Format : AC-3
Format/Info : Audio Coding 3
Commercial name : Dolby Digital
Codec ID : A_AC3
Duration : 22 min 31 s
Bit rate mode : Constant
Bit rate : 384 kb/s
Channel(s) : 6 channels
Channel layout : L R C LFE Ls Rs
Sampling rate : 48.0 kHz
Frame rate : 31.250 FPS (1536 SPF)
Compression mode : Lossy
Stream size : 61.9 MiB (2%)
Language : English
Service kind : Complete Main
Default : Yes
Forced : No


Text #1
ID : 3
Format : UTF-8
Codec ID : S_TEXT/UTF8
Codec ID/Info : UTF-8 Plain Text
Duration : 21 min 36 s
Bit rate : 38 b/s
Count of elements : 181
Stream size : 6.04 KiB (0%)
Title : English
Language : English
Default : No
Forced : No


Text #2
ID : 4
Format : UTF-8
Codec ID : S_TEXT/UTF8
Codec ID/Info : UTF-8 Plain Text
Duration : 21 min 36 s
Bit rate : 58 b/s
Count of elements : 382
Stream size : 9.24 KiB (0%)
Title : English (SDH)
Language : English
Default : No
Forced : No


Text #3
ID : 5
Format : UTF-8
Codec ID : S_TEXT/UTF8
Codec ID/Info : UTF-8 Plain Text
Duration : 22 min 13 s
Bit rate : 52 b/s
Count of elements : 182
Stream size : 8.61 KiB (0%)
Title : العربية
Language : Arabic
Default : No
Forced : No


Text #4
ID : 6
Format : UTF-8
Codec ID : S_TEXT/UTF8
Codec ID/Info : UTF-8 Plain Text
Duration : 22 min 8 s
Bit rate : 57 b/s
Count of elements : 180
Stream size : 9.32 KiB (0%)
Title : български
Language : Bulgarian
Default : No
Forced : No


Text #5
ID : 7
Format : UTF-8
Codec ID : S_TEXT/UTF8
Codec ID/Info : UTF-8 Plain Text
Duration : 22 min 13 s
Bit rate : 36 b/s
Count of elements : 185
Stream size : 5.86 KiB (0%)
Title : Čeština
Language : Czech
Default : No
Forced : No


Text #6
ID : 8
Format : UTF-8
Codec ID : S_TEXT/UTF8
Codec ID/Info : UTF-8 Plain Text
Duration : 22 min 13 s
Bit rate : 37 b/s
Count of elements : 180
Stream size : 6.09 KiB (0%)
Title : dansk
Language : Danish
Default : No
Forced : No


Text #7
ID : 9
Format : UTF-8
Codec ID : S_TEXT/UTF8
Codec ID/Info : UTF-8 Plain Text
Duration : 21 min 45 s
Bit rate : 41 b/s
Count of elements : 199
Stream size : 6.67 KiB (0%)
Title : Deutsch
Language : German
Default : No
Forced : No


Text #8
ID : 10
Format : UTF-8
Codec ID : S_TEXT/UTF8
Codec ID/Info : UTF-8 Plain Text
Duration : 22 min 13 s
Bit rate : 63 b/s
Count of elements : 181
Stream size : 10.4 KiB (0%)
Title : Ελληνικά
Language : Greek
Default : No
Forced : No


Text #9
ID : 11
Format : UTF-8
Codec ID : S_TEXT/UTF8
Codec ID/Info : UTF-8 Plain Text
Duration : 22 min 12 s
Bit rate : 40 b/s
Count of elements : 186
Stream size : 6.53 KiB (0%)
Title : Español (España)
Language : Spanish
Default : No
Forced : No


Text #10
ID : 12
Format : UTF-8
Codec ID : S_TEXT/UTF8
Codec ID/Info : UTF-8 Plain Text
Duration : 22 min 13 s
Bit rate : 38 b/s
Count of elements : 183
Stream size : 6.29 KiB (0%)
Title : Español (Latinoamérica)
Language : Spanish
Default : No
Forced : No


蓝光高清网提示您  点击下方附件名即可开始下载

多版本下载时请注意区分

史诺比开骚(港) / 史努比欢乐秀(台)/史努比秀4k The.Snoopy.Show.S01.2160p.ATVP.WEB-DL.x265.10bit.HDR.DD5.1.美剧下载

史努比秀4k The.Snoopy.Show.S01.2160p.ATVP.WEB-DL.x265.10bit.HDR.DD5.1【22.20 GB】
史努比秀4k The.Snoopy.Show.S01.2160p.ATVP.WEB-DL.x265.10bit.HDR.DD5.1-KOG.torrent (文件大小:56.45 KB)


加入蓝光高清网VIP会员  无限制下载本站所有资源---点这里

资源下载、资源播放、字幕使用、无法下载等常见问题---点这里
回复

使用道具 举报

 

精彩评论3

正序浏览
gdlmxia 发表于 2021-2-6 11:36:04 | 显示全部楼层
 
太好啦&萬分感謝版主的無私發佈分享%
回复

使用道具 举报

 
Vincel 发表于 2021-2-7 20:14:15 | 显示全部楼层
 

非常感谢蓝光高清网给大家的享乐4k,祝蓝光高清网越办越好!
回复

使用道具 举报

 
feiyue 发表于 2021-2-16 22:50:47 | 显示全部楼层
 

天天访问蓝光高清网  天天打卡  习惯了
回复

使用道具 举报

 
您需要登录后才可以回帖 登录 | 立即注册

本版积分规则

0关注

2粉丝

93698帖子

  • 版块推荐
  • 百宝箱

电影推荐

更多+

热门电影

更多+

下载APP 签到更便捷

官方微信

手机APP

蓝光高清网

专注4k电影、4k视频、VR视频、高清电影、蓝光原盘资源

本站内容部分由用户自主分享和转载自互联网,转载目的在于传递更多信息,并不代表本网赞同其观点和对其真实性负责。

如有侵权、违反国家法律政策行为,请联系我们,我们会第一时间及时清除和处理!

举报反馈邮箱:lanniao@1080pro.net

Copyright   ©2019-2020  蓝光高清网    |网站地图