[喜剧] 不巧得了一枚共和国勋章 Le.Guignolo.1980.FRENCH.1080p.BluRay.x264.DTS-FGT 10.75GB

[复制链接]
蓝鸟VIP会员 永久VIP 发表于 2019-8-21 23:12:14 | 显示全部楼层 |阅读模式 打印 上一主题 下一主题

马上注册,轻松下载,海量资源,让你轻松玩转社区。

您需要 登录 才可以下载或查看,没有帐号?立即注册

x


◎译  名 不巧得了一枚共和国勋章
◎片  名 Le guignolo
◎年  代 1980
◎国  家 法国/意大利
◎类  别 喜剧/动作
◎语  言 法语
◎上映日期 1980
◎IMDb评分  5.9/10 from 1,050 users
◎IMDb链接  http://www.imdb.com/title/tt0079252/
◎豆瓣评分 0/10 from 7 users
◎豆瓣链接 http://movie.douban.com/subject/3993224/
◎片  长 90 分钟/France: 108 分钟
◎导  演 乔治·罗纳 Georges Lautner
◎主  演 让-保罗·贝尔蒙多 Jean-Paul Belmondo
      Mirella D Angelo
      迈克尔·加拉布鲁 Michel Galabru
      Carla Romanelli
      保罗·博纳切利 Paolo Bonacelli
      乔治·热雷 Georges Géret
      米彻·博恩 Michel Beaune
      Charles Gérard
      Maurice Auzel
      Tony Kendall
      Renzo Marignano
      Aldo Rendine
      Henri Guybet
      Enzo Guarini
      Lily Fayol
◎简  介
  刑满释放的迪普雷出狱后恶习不改,化名亚历山大继续偷盗诈骗。一天,他扮成富甲一方的东方王子,来到地中海的奥德赛号豪华游轮上企图行骗,与化名帕梅拉的女骗子苏菲不期而遇。一番较量后,两个人一拍即合,开始了狼狈为奸的行骗生涯。他们精心设计骗局诈取他人钱财,没想到总是弄巧成拙,演出了一幕幕令人捧腹的笑剧……
Video
ID                                       : 1
Format                                   : AVC
Format/Info                              : Advanced Video Codec
Format profile                           : [email protected]
Format settings, CABAC                   : Yes
Format settings, ReFrames                : 4 frames
Codec ID                                 : V_MPEG4/ISO/AVC
Duration                                 : 1h 47mn
Bit rate                                 : 12.5 Mbps
Width                                    : 1 808 pixels
Height                                   : 1 080 pixels
Display aspect ratio                     : 5:3
Frame rate mode                          : Constant
Frame rate                               : 23.976 fps
Color space                              : YUV
Chroma subsampling                       : 4:2:0
Bit depth                                : 8 bits
Scan type                                : Progressive
Bits/(Pixel*Frame)                       : 0.268
Stream size                              : 9.40 GiB (87%)
Writing library                          : x264 core 130 r2273 b3065e6
Encoding settings                        : cabac=1 / ref=4 / deblock=1:-1:-1 / analyse=0x3:0x113 / me=umh / subme=10 / psy=1 / psy_rd=1.00:0.15 / mixed_ref=1 / me_range=48 / chroma_me=1 / trellis=2 / 8x8dct=1 / cqm=0 / deadzone=21,11 / fast_pskip=1 / chroma_qp_offset=-3 / threads=12 / lookahead_threads=3 / sliced_threads=0 / nr=0 / decimate=1 / interlaced=0 / bluray_compat=0 / constrained_intra=0 / bframes=11 / b_pyramid=2 / b_adapt=2 / b_bias=0 / direct=3 / weightb=1 / open_gop=0 / weightp=2 / keyint=250 / keyint_min=24 / scenecut=40 / intra_refresh=0 / rc_lookahead=50 / rc=crf / mbtree=1 / crf=18.0 / qcomp=0.60 / qpmin=10 / qpmax=51 / qpstep=4 / vbv_maxrate=50000 / vbv_bufsize=62500 / crf_max=0.0 / nal_hrd=none / ip_ratio=1.40 / aq=2:1.00
Language                                 : English
Default                                  : Yes
Forced                                   : No
Audio
ID                                       : 2
Format                                   : DTS
Format/Info                              : Digital Theater Systems
Mode                                     : 16
Format settings, Endianness              : Big
Codec ID                                 : A_DTS
Duration                                 : 1h 47mn
Bit rate mode                            : Constant
Bit rate                                 : 1 509 Kbps
Channel(s)                               : 2 channels
Channel positions                        : Front: L R
Sampling rate                            : 48.0 KHz
Bit depth                                : 16 bits
Compression mode                         : Lossy
Stream size                              : 1.13 GiB (11%)
Language                                 : French
Default                                  : Yes
Forced                                   : No
Text
ID                                       : 3
Format                                   : UTF-8
Codec ID                                 : S_TEXT/UTF8
Codec ID/Info                            : UTF-8 Plain Text
Language                                 : English
Default                                  : Yes
Forced                                   : Yes

精彩剧照


                                       

蓝光高清网提示您 点击下方附件名称 马上开始下载



温馨提示:
本站资源优先使用迅雷下载,迅雷会员下载,速度基本可以跑满宽带
如果遇到无资源或者版权问题无法下载,推荐使用115网盘离线下载(点击查看115网盘离线下载教程


  • 该资源需要您回复以后 刷新网页进行下载操作

  • 1、Le.Guignolo.1980.FRENCH.1080p.BluRay.x264.DTS-FGT.torrent 54KB 已下载 0 次

加入蓝光高清网VIP会员  无限制下载本站所有资源---点此加入

资源下载、资源播放、字幕使用、无法下载等常见问题---点这里

回复

使用道具 举报

懒得打字嘛,点击右侧快捷回复
高级模式
B Color Image Link Quote Code Smilies 上传

本版积分规则

关注0

粉丝0

帖子68004

发布主题
最新电影 论坛
广告位
联系我们
点击这里联系客服

服务时间:
周一到周日8:00-23:30

  • 打开微信扫一扫
    关注公众号

  • 手机QQ扫一扫
    添加客服

Archiver手机版蓝光高清网 ( 渝ICP备18006373号-2 )|网站地图

Powered by Discuz! X3.4  © 2001-2013 Comsenz Inc.