开通会员
全站资源畅享下载
4k原盘抢先下载
免高清币下载
会员用户组特权
开通会员
上传
收藏
首页
开启左侧

[4K高清美剧] 皮奥里亚王子 4k Prince.of.Peoria.A.Christmas.Moose.Miracle.2018.2160p.NF.WEB-DL.x265.10bit.HDR.DDP5.1.电影下载—3.27 GB

[复制链接]
蓝鸟 发表于 2021-2-8 22:28:16 | 显示全部楼层 |阅读模式 打印 上一主题 下一主题

皮奥里亚王子(上映日期:2018)4K(3840x2160)

简介  Story of a wealthy prince who travels to the US to live as an exchange student. While living in anonymity, the prince strikes up an unlikely friendship.
导演Devin Bunje / Nick Stanton / Jason Jordan
主演加文·刘易斯 / 辛希亚·卡耶·麦克威廉姆斯 Cynthia Kaye McWilliams / Theodore Barnes / Shelby Simmons / 加布里埃尔·霍根 Gabriel Hogan
类型家庭 
地区美国
声道5.1声道
编码其他DD
状态第一季(完结)
评分豆瓣6.2分
 

加入蓝光高清网,轻松下载最新4k资源

您需要 登录 才可以下载或查看,没有帐号?立即注册

x
简       介

  Story of a wealthy prince who travels to the US to live as an exchange student. While living in anonymity, the prince strikes up an unlikely friendship.


影片参数
Prinz von Peoria/皮奥里亚王子4k Prince.of.Peoria.A.Christmas.Moose.Miracle.2018.2160p.NF.WEB-DL.x265.10bit.HDR.DDP5.1.美剧信息
Video
ID : 1
Format : HEVC
Format/Info : High Efficiency Video Coding
Format profile : Main 10@L5@Main
HDR format : SMPTE ST 2086, HDR10 compatible
Codec ID : V_MPEGH/ISO/HEVC
Duration : 28 min 24 s
Bit rate : 15.8 Mb/s
Width : 3 840 pixels
Height : 2 160 pixels
Display aspect ratio : 16:9
Frame rate mode : Constant
Frame rate : 23.976 (24000/1001) FPS
Color space : YUV
Chroma subsampling : 4:2:0 (Type 2)
Bit depth : 10 bits
Bits/(Pixel*Frame) : 0.079
Stream size : 3.14 GiB (96%)
Default : Yes
Forced : No
Color range : Limited
Color primaries : BT.2020
Transfer characteristics : PQ
Matrix coefficients : BT.2020 non-constant
Mastering display color primaries : Display P3
Mastering display luminance : min: 0.0050 cd/m2, max: 4000 cd/m2
Maximum Content Light Level : 3584 cd/m2
Maximum Frame-Average Light Level : 1385 cd/m2

Audio
ID : 2
Format : E-AC-3
Format/Info : Enhanced AC-3
Commercial name : Dolby Digital Plus
Codec ID : A_EAC3
Duration : 29 min 16 s
Bit rate mode : Constant
Bit rate : 640 kb/s
Channel(s) : 6 channels
Channel layout : L R C LFE Ls Rs
Sampling rate : 48.0 kHz
Frame rate : 31.250 FPS (1536 SPF)
Compression mode : Lossy
Stream size : 134 MiB (4%)
Title : DDP 5.1
Language : English
Service kind : Complete Main
Default : Yes
Forced : No


蓝光高清网提示您  点击下方附件名称  马上开始下载

多版本下载时请注意区分

Prinz von Peoria/皮奥里亚王子4k Prince.of.Peoria.A.Christmas.Moose.Miracle.2018.2160p.NF.WEB-DL.x265.10bit.HDR.DDP5.1.美剧下载

皮奥里亚王子4k Prince.of.Peoria.A.Christmas.Moose.Miracle.2018.2160p.NF.WEB-DL.x265.10bit.HDR.DDP5.1【3.27 GB】
皮奥里亚王子4k Prince.of.Peoria.A.Christmas.Moose.Miracle.2018.2160p.NF.W.torrent (文件大小:33.31 KB)

加入蓝光高清网VIP会员  无限制下载本站所有资源---点这里

资源下载、资源播放、字幕使用、无法下载等常见问题---点这里
回复

使用道具 举报

 

精彩评论3

正序浏览
gdlmxia 发表于 2021-2-8 23:16:45 | 显示全部楼层
 
太好啦&萬分感謝版主的無私發佈分享%
回复

使用道具 举报

 
feiyue 发表于 2021-2-11 15:08:50 | 显示全部楼层
 

天天访问蓝光高清网  天天打卡  习惯了
回复

使用道具 举报

 
Vincel 发表于 2021-2-14 00:09:15 | 显示全部楼层
 

非常感谢蓝光高清网给大家的享乐4k,祝蓝光高清网越办越好!
回复

使用道具 举报

 
您需要登录后才可以回帖 登录 | 立即注册

本版积分规则

0关注

2粉丝

93698帖子

  • 版块推荐
  • 百宝箱

电影推荐

更多+

热门电影

更多+

下载APP 签到更便捷

官方微信

手机APP

蓝光高清网

专注4k电影、4k视频、VR视频、高清电影、蓝光原盘资源

本站内容部分由用户自主分享和转载自互联网,转载目的在于传递更多信息,并不代表本网赞同其观点和对其真实性负责。

如有侵权、违反国家法律政策行为,请联系我们,我们会第一时间及时清除和处理!

举报反馈邮箱:lanniao@1080pro.net

Copyright   ©2019-2020  蓝光高清网    |网站地图