[恐怖] 群斗/魔鬼军团/活死人部落 The.Horde.2009.FRENCH.1080p.BluRay.x264.DTS-FGT 8.73GB

[复制链接]
蓝鸟VIP会员 永久VIP 发表于 2019-8-21 23:13:04 | 显示全部楼层 |阅读模式 打印 上一主题 下一主题

马上注册,轻松下载,海量资源,让你轻松玩转社区。

您需要 登录 才可以下载或查看,没有帐号?立即注册

x

?
◎译  名 群斗/魔鬼军团/活死人部落
◎片  名 La horde
◎年  代 2010
◎国  家 法国
◎类  别 动作/恐怖
◎语  言 法语
◎上映日期 2010-02-10
◎IMDb评分  5.9/10 from 12,165 users
◎IMDb链接  http://www.imdb.com/title/tt1183276/
◎豆瓣评分 6.0/10 from 1,613 users
◎豆瓣链接 http://movie.douban.com/subject/3068236/
◎导  演 Yannick Dahan / Benjamin Rocher
◎主  演 Eriq Ebouaney
◎简  介
  警官马库迪被一伙尼日利亚黑帮分子杀害,极度的悲痛驱使他的同事和好友希门尼斯(Aurélien Recoing 饰)、韦索(Jean-Pierre Martins 饰)、东尼(Antoine Oppenheim 饰)和奥萝尔(Claude Perron 饰)等人私自前往黑帮分子盘踞的废弃大厦,准备用自己的力量为马库迪报仇。然而悲伤和愤怒让他们失去了应有的判断力,一番枪战过后,这几名警察被黑帮抓获,并遭受难以想象的拷问与折磨。但是更恐怖的事情正等在前方,肃杀的黑夜弥漫着浓烈的死亡气息,一群嗜血如命的恐怖丧尸开始向这两伙人发动袭击。暂时逃生的他们发现,整个城市早已被丧尸所占领……
  本片荣获2010年葡萄牙奇幻电影节最佳摄影和最佳剧本奖、2010年法国Gérardmer电影节科幻评委会奖。
Video
ID                                       : 1
Format                                   : AVC
Format/Info                              : Advanced Video Codec
Format profile                           : [email protected]
Format settings, CABAC                   : Yes
Format settings, ReFrames                : 5 frames
Codec ID                                 : V_MPEG4/ISO/AVC
Duration                                 : 1h 41mn
Bit rate                                 : 10.8 Mbps
Width                                    : 1 920 pixels
Height                                   : 816 pixels
Display aspect ratio                     : 2.35:1
Frame rate mode                          : Constant
Frame rate                               : 23.976 fps
Color space                              : YUV
Chroma subsampling                       : 4:2:0
Bit depth                                : 8 bits
Scan type                                : Progressive
Bits/(Pixel*Frame)                       : 0.286
Stream size                              : 7.48 GiB (86%)
Writing library                          : x264 core 88 r1471 1144615
Encoding settings                        : cabac=1 / ref=5 / deblock=1:-3:-3 / analyse=0x3:0x113 / me=umh / subme=9 / psy=1 / psy_rd=1.05:0.10 / mixed_ref=1 / me_range=32 / chroma_me=1 / trellis=2 / 8x8dct=1 / cqm=2 / deadzone=21,11 / fast_pskip=0 / chroma_qp_offset=-2 / threads=12 / sliced_threads=0 / nr=0 / decimate=1 / mbaff=0 / constrained_intra=0 / bframes=3 / b_pyramid=2 / b_adapt=2 / b_bias=0 / direct=3 / wpredb=1 / wpredp=2 / keyint=250 / keyint_min=25 / scenecut=40 / intra_refresh=0 / rc_lookahead=50 / rc=2pass / mbtree=1 / bitrate=10755 / ratetol=2.0 / qcomp=0.70 / qpmin=10 / qpmax=51 / qpstep=4 / cplxblur=20.0 / qblur=0.5 / vbv_maxrate=50000 / vbv_bufsize=50000 / ip_ratio=1.40 / aq=1:1.00
Language                                 : French
Default                                  : No
Forced                                   : No
Audio
ID                                       : 2
Format                                   : DTS
Format/Info                              : Digital Theater Systems
Mode                                     : 16
Format settings, Endianness              : Big
Codec ID                                 : A_DTS
Duration                                 : 1h 41mn
Bit rate mode                            : Constant
Bit rate                                 : 1 509 Kbps
Channel(s)                               : 6 channels
Channel positions                        : Front: L C R, Side: L R, LFE
Sampling rate                            : 48.0 KHz
Bit depth                                : 24 bits
Compression mode                         : Lossy
Stream size                              : 1.07 GiB (12%)
Language                                 : French
Default                                  : Yes
Forced                                   : No
Text
ID                                       : 3
Format                                   : UTF-8
Codec ID                                 : S_TEXT/UTF8
Codec ID/Info                            : UTF-8 Plain Text
Language                                 : English
Default                                  : Yes
Forced                                   : Yes
Menu
00:00:00.000                             : en:00:00:00.000
00:07:29.616                             : en:00:07:29.616
00:18:52.757                             : en:00:18:52.757
00:26:50.400                             : en:00:26:50.400
00:36:14.589                             : en:00:36:14.589
00:45:45.409                             : en:00:45:45.409
00:53:30.999                             : en:00:53:30.999
01:01:12.294                             : en:01:01:12.294
01:11:35.833                             : en:01:11:35.833
01:22:02.668                             : en:01:22:02.668
01:26:45.867                             : en:01:26:45.867
01:34:13.189                             : en:01:34:13.189

精彩剧照


                                       

蓝光高清网提示您 点击下方附件名称 马上开始下载



温馨提示:
本站资源优先使用迅雷下载,迅雷会员下载,速度基本可以跑满宽带
如果遇到无资源或者版权问题无法下载,推荐使用115网盘离线下载(点击查看115网盘离线下载教程


  • 该资源需要您回复以后 刷新网页进行下载操作

  • 1、The.Horde.2009.FRENCH.1080p.BluRay.x264.DTS-FGT.torrent 88KB 已下载 0 次

加入蓝光高清网VIP会员  无限制下载本站所有资源---点此加入

资源下载、资源播放、字幕使用、无法下载等常见问题---点这里

回复

使用道具 举报

懒得打字嘛,点击右侧快捷回复
高级模式
B Color Image Link Quote Code Smilies 上传

本版积分规则

关注0

粉丝0

帖子68429

发布主题
最新电影 论坛
广告位
联系我们
点击这里联系客服

服务时间:
周一到周日8:00-23:30

  • 打开微信扫一扫
    关注公众号

  • 手机QQ扫一扫
    添加客服

Archiver手机版蓝光高清网 ( 渝ICP备18006373号-2 )|网站地图

Powered by Discuz! X3.4  © 2001-2013 Comsenz Inc.