[奇幻] 今夜你会不会来/穿梭阴阳恋/月下之恋 Haunted.1995.1080p.BluRay.x264.DD2.0-FGT 7.47GB

[复制链接]
蓝鸟VIP会员 永久VIP 发表于 2019-8-21 23:13:55 | 显示全部楼层 |阅读模式 打印 上一主题 下一主题

马上注册,轻松下载,海量资源,让你轻松玩转社区。

您需要 登录 才可以下载或查看,没有帐号?立即注册

x


◎译  名 今夜你会不会来/穿梭阴阳恋/月下之恋
◎片  名 Haunted
◎年  代 1995
◎国  家 英国/美国
◎类  别 剧情/奇幻/悬疑/爱情
◎语  言 英语
◎上映日期 1996-06-06
◎IMDb评分  6.3/10 from 4,818 users
◎IMDb链接  http://www.imdb.com/title/tt0113269/
◎豆瓣评分 7.2/10 from 427 users
◎豆瓣链接 http://movie.douban.com/subject/1306540/
◎片  长 108 分钟
◎导  演 刘易斯 吉尔伯特 (Lewis Gilbert (II))
◎主  演 艾丹·奎因 Aidan Quinn
      凯特·贝金赛尔 Kate Beckinsale
      安东尼·安德鲁斯 Anthony Andrews
◎简  介
  大卫艾许是剑桥耶稣学院的灵学教授,深信人类死后并无安息之地。一天,他接到艾德布鲁克之家韦伯小姐的来信,请他前往调查该宅邸发生的怪事。
  艾德布鲁克之家住了三兄妹,冷漠孤僻的劳勃,生气勃勃的赛门,和独立、大胆、美丽的克莉丝汀娜。在调查期间,大卫发现艾德布鲁克之家本身似乎有怪异处,他常常为莫名的意外所伤,另一方面,克莉丝汀娜的美深深吸引了他,扰动他的激情,他无法抗拒的成了她的情人。
  调查的情形毫无突破,大卫自己反而逐渐陷入迷惑。他常常看到闪现的鬼影,而他毫无来由的感到:那就是他幼时溺水而死的双胞胎妹妹茱莉叶。
  有一天,茱莉叶终于现身了,带著大卫穿过森林,前往一个他早已遗忘的角落,在那里,大卫发现了自己内心深处幽暗恐惧的源头…
Video
ID                                       : 1
Format                                   : AVC
Format/Info                              : Advanced Video Codec
Format profile                           : [email protected]
Format settings, CABAC                   : Yes
Format settings, ReFrames                : 4 frames
Codec ID                                 : V_MPEG4/ISO/AVC
Duration                                 : 1h 47mn
Bit rate                                 : 9 704 Kbps
Width                                    : 1 760 pixels
Height                                   : 1 080 pixels
Display aspect ratio                     : 16:10
Frame rate mode                          : Constant
Frame rate                               : 24.000 fps
Color space                              : YUV
Chroma subsampling                       : 4:2:0
Bit depth                                : 8 bits
Scan type                                : Progressive
Bits/(Pixel*Frame)                       : 0.213
Stream size                              : 7.16 GiB (96%)
Writing library                          : x264 core 128 r2216M 198a7ea
Encoding settings                        : cabac=1 / ref=4 / deblock=1:0:0 / analyse=0x3:0x133 / me=umh / subme=10 / psy=1 / psy_rd=1.00:0.00 / mixed_ref=1 / me_range=32 / chroma_me=1 / trellis=2 / 8x8dct=1 / cqm=0 / deadzone=21,11 / fast_pskip=0 / chroma_qp_offset=-2 / threads=4 / lookahead_threads=1 / sliced_threads=0 / nr=0 / decimate=0 / interlaced=0 / bluray_compat=0 / constrained_intra=0 / bframes=9 / b_pyramid=2 / b_adapt=2 / b_bias=0 / direct=3 / weightb=1 / open_gop=0 / weightp=2 / keyint=240 / keyint_min=24 / scenecut=40 / intra_refresh=0 / rc=2pass / mbtree=0 / bitrate=9704 / ratetol=1.0 / qcomp=0.60 / qpmin=10 / qpmax=69 / qpstep=4 / cplxblur=20.0 / qblur=0.5 / ip_ratio=1.40 / pb_ratio=1.30 / aq=1:1.00
Language                                 : English
Default                                  : Yes
Forced                                   : No
Audio
ID                                       : 2
Format                                   : AC-3
Format/Info                              : Audio Coding 3
Mode extension                           : CM (complete main)
Format settings, Endianness              : Big
Codec ID                                 : A_AC3
Duration                                 : 1h 47mn
Bit rate mode                            : Constant
Bit rate                                 : 224 Kbps
Channel(s)                               : 2 channels
Channel positions                        : Front: L R
Sampling rate                            : 48.0 KHz
Bit depth                                : 16 bits
Compression mode                         : Lossy
Stream size                              : 173 MiB (2%)
Language                                 : English
Default                                  : Yes
Forced                                   : No
Menu
00:00:00.000                             : en:00:00:00.000
00:12:42.542                             : en:00:12:42.542
00:26:13.292                             : en:00:26:13.292
00:38:09.125                             : en:00:38:09.125
00:53:53.667                             : en:00:53:53.667
01:09:20.292                             : en:01:09:20.292
01:18:31.375                             : en:01:18:31.375
01:34:03.917                             : en:01:34:03.917

精彩剧照


                                       

蓝光高清网提示您 点击下方附件名称 马上开始下载



温馨提示:
本站资源优先使用迅雷下载,迅雷会员下载,速度基本可以跑满宽带
如果遇到无资源或者版权问题无法下载,推荐使用115网盘离线下载(点击查看115网盘离线下载教程


  • 该资源需要您回复以后 刷新网页进行下载操作

  • 1、Haunted.1995.1080p.BluRay.x264.DD2.0-FGT.torrent 75KB 已下载 0 次

加入蓝光高清网VIP会员  无限制下载本站所有资源---点此加入

资源下载、资源播放、字幕使用、无法下载等常见问题---点这里

回复

使用道具 举报

懒得打字嘛,点击右侧快捷回复
高级模式
B Color Image Link Quote Code Smilies 上传

本版积分规则

关注0

粉丝0

帖子66311

发布主题
最新电影 论坛
广告位
联系我们
点击这里联系客服

服务时间:
周一到周日8:00-23:30

  • 打开微信扫一扫
    关注公众号

  • 手机QQ扫一扫
    添加客服

Archiver手机版蓝光高清网 ( 渝ICP备18006373号-2 )|网站地图

Powered by Discuz! X3.4  © 2001-2013 Comsenz Inc.