开通会员
全站资源畅享下载
4k原盘抢先下载
免高清币下载
会员用户组特权
开通会员
上传
收藏
首页
开启左侧

[4K高清美剧] 旺达幻视 WandaVision.S01.2160p.DSNP.WEBRip.x265.10bit.HDR.DDP5.1.Atmos-12.7GB

[复制链接]
蓝鸟 发表于 2021-2-14 10:32:03 | 显示全部楼层 |阅读模式 打印 上一主题 下一主题

旺达幻视 WandaVision(上映日期:2021)4K(3840x2160)

简介将经典情景喜剧的风格与MCU融合在一起,在MCU中,旺达·马克西莫夫和幻视——两个过着理想郊区生活的超能力者-开始怀疑一切都不是看起来的那样。
导演马特·沙克曼
主演伊丽莎白·奥尔森 / 保罗·贝坦尼 / 凯瑟琳·哈恩 / 泰柔娜·派丽丝 / 凯特·戴琳斯
类型喜剧 动作 剧情 科幻 奇幻 冒险 
地区美国
声道5.1声道
编码其他DD
状态第一季(更新至第7集)
评分豆瓣9.2分
 

加入蓝光高清网,轻松下载最新4k资源

您需要 登录 才可以下载或查看,没有帐号?立即注册

x
本帖最后由 蓝鸟 于 2021-2-21 10:31 编辑

image.png image.png image.png

影片参数
General
Format                         : Matroska
Format version                 : Version 4
File size                      : 2.96 GiB
Duration                       : 26 min 36 s
Overall bit rate               : 15.9 Mb/s
Encoded date                   : UTC 2021-01-15 11:34:00
Writing application            : mkvmerge v50.0.0 ('Awakenings') 64-bit
Writing library                : libebml v1.4.0 + libmatroska v1.6.2


Video
ID                             : 1
Format                         : HEVC
Format/Info                    : High Efficiency Video Coding
Format profile                 : Main 10@L5@High
Codec ID                       : V_MPEGH/ISO/HEVC
Duration                       : 26 min 36 s
Bit rate                       : 15.1 Mb/s
Width                          : 3 840 pixels
Height                         : 2 160 pixels
Display aspect ratio           : 16:9
Frame rate mode                : Constant
Frame rate                     : 23.976 (24000/1001) FPS
Color space                    : YUV
Chroma subsampling             : 4:2:0
Bit depth                      : 10 bits
Bits/(Pixel*Frame)             : 0.076
Stream size                    : 2.81 GiB (95%)
Default                        : Yes
Forced                         : No
Color range                    : Limited
Color primaries                : BT.2020
Transfer characteristics       : PQ
Matrix coefficients            : BT.2020 non-constant

Audio
ID                             : 2
Format                         : E-AC-3 JOC
Format/Info                    : Enhanced AC-3 with Joint Object Coding
Commercial name                : Dolby Digital Plus with Dolby Atmos
Codec ID                       : A_EAC3
Duration                       : 26 min 36 s
Bit rate mode                  : Constant
Bit rate                       : 768 kb/s
Channel(s)                     : 6 channels
Channel layout                 : L R C LFE Ls Rs
Sampling rate                  : 48.0 kHz
Frame rate                     : 31.250 FPS (1536 SPF)
Compression mode               : Lossy
Stream size                    : 146 MiB (5%)
Title                          : English
Language                       : English
Service kind                   : Complete Main
Default                        : No
Forced                         : No
Complexity index               : 16
Number of dynamic objects      : 15
Bed channel count              : 1 channel
Bed channel configuration      : LFE



蓝光高清网提示您  点击下方附件名即可开始下载

旺达幻视 WandaVision.S01.2160p.DSNP.WEBRip.x265.10bit.HDR.DDP5.1.Atmos美剧下载

第一集
WandaVision.S01E01.2160p.DSNP.WEBRip.x265.10b.torrent (文件大小:30.13 KB)


第二集
WandaVision.S01E02.2160p.DSNP.WEBRip.x265.10b.torrent (文件大小:38.22 KB)


第三集
WandaVision.S01E03.2160p.DSNP.WEBRip.x265.10b.torrent (文件大小:34.07 KB)


第四集
WandaVision.S01E04.iNTERNAL.HDR.2160p.WEB.h26.torrent (文件大小:26.18 KB)


第五集
WandaVision.S01E05.HDR.2160p.WEB.h265-KOGi[ra.torrent (文件大小:30.24 KB)


第六集
WandaVision.S01E06.iNTERNAL.HDR.2160p.WEB.h26.torrent (文件大小:28.03 KB)


第七集
WandaVision.S01E07.2160p.WEB.h265-KOGi[rartv].torrent (文件大小:25.63 KB)

加入蓝光高清网VIP会员  无限制下载本站所有资源---点这里

资源下载、资源播放、字幕使用、无法下载等常见问题---点这里
回复

使用道具 举报

 

精彩评论13

正序浏览
gdlmxia 发表于 2021-2-14 17:17:25 | 显示全部楼层
 
太好啦&萬分感謝版主的無私發佈分享%
回复

使用道具 举报

 
蓝莲花 发表于 2021-2-15 08:42:19 | 显示全部楼层
 

非常感谢蓝光高清网给大家的享乐4k,祝蓝光高清网越办越好!
回复

使用道具 举报

 
homeboss00 发表于 2021-2-15 12:12:22 | 显示全部楼层
 
第4,第5集有声音没有图像。
回复

使用道具 举报

 
Vincel 发表于 2021-2-16 14:43:36 | 显示全部楼层
 

非常感谢蓝光高清网给大家的享乐4k,祝蓝光高清网越办越好!
回复

使用道具 举报

 
ylqycy 发表于 6 天前 | 显示全部楼层
 
非常感谢蓝光高清网分享的各种知识和资源,祝蓝光高清网越来越好
回复

使用道具 举报

 
一朵云IN中国 发表于 6 天前 | 显示全部楼层
 
第4集和第5集,KMP播放没有画面只有声音,用Win10自带得播放器画面都变绿了
回复

使用道具 举报

 
周文 发表于 5 天前 | 显示全部楼层
 
哦?没有声音?
回复

使用道具 举报

 
蓝鸟 发表于 4 天前 | 显示全部楼层
 
homeboss00 发表于 2021-2-15 12:12
第4,第5集有声音没有图像。

已修复 重新下载文件即可
加入蓝光高清网VIP会员  无限制下载本站所有资源---点这里

资源下载、资源播放、字幕使用、无法下载等常见问题---点这里
回复

使用道具 举报

 
 楼主| 蓝鸟 发表于 4 天前 | 显示全部楼层
 
homeboss00 发表于 2021-2-15 12:12
第4,第5集有声音没有图像。

已修复 重新下载文件即可
加入蓝光高清网VIP会员  无限制下载本站所有资源---点这里

资源下载、资源播放、字幕使用、无法下载等常见问题---点这里
回复

使用道具 举报

 
您需要登录后才可以回帖 登录 | 立即注册

本版积分规则

0关注

2粉丝

93698帖子

  • 版块推荐
  • 百宝箱

电影推荐

更多+

热门电影

更多+

下载APP 签到更便捷

官方微信

手机APP

蓝光高清网

专注4k电影、4k视频、VR视频、高清电影、蓝光原盘资源

本站内容部分由用户自主分享和转载自互联网,转载目的在于传递更多信息,并不代表本网赞同其观点和对其真实性负责。

如有侵权、违反国家法律政策行为,请联系我们,我们会第一时间及时清除和处理!

举报反馈邮箱:lanniao@1080pro.net

Copyright   ©2019-2020  蓝光高清网    |网站地图