[喜剧] 羊群/山羊 Goats.2012.1080p.BluRay.x264.DTS-FGT 9.2GB

[复制链接]
蓝鸟VIP会员 永久VIP 发表于 2019-8-21 23:14:48 | 显示全部楼层 |阅读模式 打印 上一主题 下一主题

马上注册,轻松下载,海量资源,让你轻松玩转社区。

您需要 登录 才可以下载或查看,没有帐号?立即注册

x


◎译  名 羊群/山羊
◎片  名 Goats
◎年  代 2012
◎国  家 美国
◎类  别 喜剧
◎语  言 英语
◎上映日期 2012-08-10(美国)
◎IMDb评分  5.9/10 from 3,883 users
◎IMDb链接  http://www.imdb.com/title/tt1577052/
◎豆瓣评分 6.8/10 from 264 users
◎豆瓣链接 http://movie.douban.com/subject/4904672/
◎片  长 94分钟
◎导  演 Christopher Neil
◎主  演 维拉·法米加 Vera Farmiga
      大卫·杜楚尼 David Duchovny
      凯丽·拉塞尔 Keri Russell
      泰·布利尔 Ty Burrell
      格拉汉姆·菲利普斯 Graham Phillips
      贾斯汀·柯克 Justin Kirk
      达科塔·约翰逊 Dakota Johnson
◎简  介
  影片讲述了一个15岁的男孩埃利斯(格拉汉姆·菲利普斯),离开他那又古怪又很“新时代”的母亲温蒂(维拉·法梅加)去上预科学校,从西南老家来到东海岸,这位少年开启了一段人生之旅。与埃利斯疏远的父亲弗兰克(泰·布利尔)正是那所预科学校曾经的明星学生,这意味着,埃利斯对父亲将有一个真实的、全新的认识。“Goat Man”,一个抽烟壶的家伙(大卫·杜楚尼),是弗兰克的哥们儿(校园里的羊群效应),他在预科学校曾经迷了迷糊的经历,与埃利斯的想法形成了鲜明对比,同时也影响了这位少年的生活方式。
Video
ID                                       : 1
Format                                   : AVC
Format/Info                              : Advanced Video Codec
Format profile                           : [email protected]
Format settings, CABAC                   : Yes
Format settings, ReFrames                : 5 frames
Codec ID                                 : V_MPEG4/ISO/AVC
Duration                                 : 1h 34mn
Bit rate                                 : 12.5 Mbps
Width                                    : 1 920 pixels
Height                                   : 800 pixels
Display aspect ratio                     : 2.40:1
Frame rate mode                          : Constant
Frame rate                               : 23.976 fps
Color space                              : YUV
Chroma subsampling                       : 4:2:0
Bit depth                                : 8 bits
Scan type                                : Progressive
Bits/(Pixel*Frame)                       : 0.339
Stream size                              : 8.03 GiB (87%)
Writing library                          : x264 core 116 r2074 2641b9e
Encoding settings                        : cabac=1 / ref=5 / deblock=1:-3:-3 / analyse=0x3:0x113 / me=umh / subme=11 / psy=1 / psy_rd=1.00:0.00 / mixed_ref=1 / me_range=48 / chroma_me=1 / trellis=2 / 8x8dct=1 / cqm=0 / deadzone=21,11 / fast_pskip=1 / chroma_qp_offset=-2 / threads=12 / sliced_threads=0 / nr=0 / decimate=1 / interlaced=0 / bluray_compat=0 / constrained_intra=0 / bframes=9 / b_pyramid=2 / b_adapt=1 / b_bias=0 / direct=3 / weightb=1 / open_gop=0 / weightp=2 / keyint=250 / keyint_min=20 / scenecut=40 / intra_refresh=0 / rc_lookahead=40 / rc=2pass / mbtree=1 / bitrate=12500 / ratetol=1.0 / qcomp=0.70 / qpmin=10 / qpmax=51 / qpstep=4 / cplxblur=20.0 / qblur=0.5 / ip_ratio=1.40 / aq=1:1.00
Language                                 : English
Default                                  : No
Forced                                   : No
Audio
ID                                       : 2
Format                                   : DTS
Format/Info                              : Digital Theater Systems
Mode                                     : 16
Format settings, Endianness              : Big
Codec ID                                 : A_DTS
Duration                                 : 1h 34mn
Bit rate mode                            : Constant
Bit rate                                 : 1 509 Kbps
Channel(s)                               : 6 channels
Channel positions                        : Front: L C R, Side: L R, LFE
Sampling rate                            : 48.0 KHz
Bit depth                                : 16 bits
Compression mode                         : Lossy
Delay relative to video                  : 11ms
Stream size                              : 1 016 MiB (11%)
Language                                 : English
Default                                  : Yes
Forced                                   : No
Text
ID                                       : 3
Format                                   : UTF-8
Codec ID                                 : S_TEXT/UTF8
Codec ID/Info                            : UTF-8 Plain Text
Language                                 : English
Default                                  : No
Forced                                   : No
Menu
00:00:00.000                             : en:
00:08:12.617                             : en:
00:15:21.045                             : en:
00:23:44.506                             : en:
00:33:01.354                             : en:
00:40:50.030                             : en:
00:46:58.357                             : en:
00:53:52.437                             : en:
00:59:58.011                             : en:
01:09:56.358                             : en:
01:18:53.478                             : en:
01:27:10.183                             : en:
01:34:06.599                             : en:

精彩剧照


                                       

蓝光高清网提示您 点击下方附件名称 马上开始下载



温馨提示:
本站资源优先使用迅雷下载,迅雷会员下载,速度基本可以跑满宽带
如果遇到无资源或者版权问题无法下载,推荐使用115网盘离线下载(点击查看115网盘离线下载教程


  • 该资源需要您回复以后 刷新网页进行下载操作

  • 1、Goats.2012.1080p.BluRay.x264.DTS-FGT.torrent 93KB 已下载 0 次

加入蓝光高清网VIP会员  无限制下载本站所有资源---点此加入

资源下载、资源播放、字幕使用、无法下载等常见问题---点这里

回复

使用道具 举报

懒得打字嘛,点击右侧快捷回复
高级模式
B Color Image Link Quote Code Smilies 上传

本版积分规则

关注0

粉丝0

帖子66703

发布主题
最新电影 论坛
广告位
联系我们
点击这里联系客服

服务时间:
周一到周日8:00-23:30

  • 打开微信扫一扫
    关注公众号

  • 手机QQ扫一扫
    添加客服

Archiver手机版蓝光高清网 ( 渝ICP备18006373号-2 )|网站地图

Powered by Discuz! X3.4  © 2001-2013 Comsenz Inc.